  0
SECTION
  2
HEADER
  9
$ACADVER
  1
AC1014
  9
$ACADMAINTVER
 70
     9
  9
$DWGCODEPAGE
  3
ANSI_1251
  9
$INSBASE
 10
0.0
 20
0.0
 30
0.0
  9
$EXTMIN
 10
1.000000000000000E+20
 20
1.000000000000000E+20
 30
1.000000000000000E+20
  9
$EXTMAX
 10
-1.000000000000000E+20
 20
-1.000000000000000E+20
 30
-1.000000000000000E+20
  9
$LIMMIN
 10
0.0
 20
0.0
  9
$LIMMAX
 10
12.0
 20
9.0
  9
$ORTHOMODE
 70
     0
  9
$REGENMODE
 70
     1
  9
$FILLMODE
 70
     1
  9
$QTEXTMODE
 70
     0
  9
$MIRRTEXT
 70
     1
  9
$DRAGMODE
 70
     2
  9
$LTSCALE
 40
1.0
  9
$OSMODE
 70
    37
  9
$ATTMODE
 70
     1
  9
$TEXTSIZE
 40
0.2
  9
$TRACEWID
 40
0.05
  9
$TEXTSTYLE
  7
STANDARD
  9
$CLAYER
  8
0
  9
$CELTYPE
  6
BYLAYER
  9
$CECOLOR
 62
   256
  9
$CELTSCALE
 40
1.0
  9
$DELOBJ
 70
     1
  9
$DISPSILH
 70
     0
  9
$DIMSCALE
 40
1.0
  9
$DIMASZ
 40
0.18
  9
$DIMEXO
 40
0.0625
  9
$DIMDLI
 40
0.38
  9
$DIMRND
 40
0.0
  9
$DIMDLE
 40
0.0
  9
$DIMEXE
 40
0.18
  9
$DIMTP
 40
0.0
  9
$DIMTM
 40
0.0
  9
$DIMTXT
 40
0.18
  9
$DIMCEN
 40
0.09
  9
$DIMTSZ
 40
0.0
  9
$DIMTOL
 70
     0
  9
$DIMLIM
 70
     0
  9
$DIMTIH
 70
     1
  9
$DIMTOH
 70
     1
  9
$DIMSE1
 70
     0
  9
$DIMSE2
 70
     0
  9
$DIMTAD
 70
     0
  9
$DIMZIN
 70
     0
  9
$DIMBLK
  1

  9
$DIMASO
 70
     1
  9
$DIMSHO
 70
     1
  9
$DIMPOST
  1

  9
$DIMAPOST
  1

  9
$DIMALT
 70
     0
  9
$DIMALTD
 70
     2
  9
$DIMALTF
 40
25.4
  9
$DIMLFAC
 40
1.0
  9
$DIMTOFL
 70
     0
  9
$DIMTVP
 40
0.0
  9
$DIMTIX
 70
     0
  9
$DIMSOXD
 70
     0
  9
$DIMSAH
 70
     0
  9
$DIMBLK1
  1

  9
$DIMBLK2
  1

  9
$DIMSTYLE
  2
STANDARD
  9
$DIMCLRD
 70
     0
  9
$DIMCLRE
 70
     0
  9
$DIMCLRT
 70
     0
  9
$DIMTFAC
 40
1.0
  9
$DIMGAP
 40
0.09
  9
$DIMJUST
 70
     0
  9
$DIMSD1
 70
     0
  9
$DIMSD2
 70
     0
  9
$DIMTOLJ
 70
     1
  9
$DIMTZIN
 70
     0
  9
$DIMALTZ
 70
     0
  9
$DIMALTTZ
 70
     0
  9
$DIMFIT
 70
     3
  9
$DIMUPT
 70
     0
  9
$DIMUNIT
 70
     2
  9
$DIMDEC
 70
     4
  9
$DIMTDEC
 70
     4
  9
$DIMALTU
 70
     2
  9
$DIMALTTD
 70
     2
  9
$DIMTXSTY
  7
STANDARD
  9
$DIMAUNIT
 70
     0
  9
$LUNITS
 70
     2
  9
$LUPREC
 70
     4
  9
$SKETCHINC
 40
0.1
  9
$FILLETRAD
 40
0.5
  9
$AUNITS
 70
     0
  9
$AUPREC
 70
     0
  9
$MENU
  1
.
  9
$ELEVATION
 40
0.0
  9
$PELEVATION
 40
0.0
  9
$THICKNESS
 40
0.0
  9
$LIMCHECK
 70
     0
  9
$CHAMFERA
 40
0.5
  9
$CHAMFERB
 40
0.5
  9
$CHAMFERC
 40
1.0
  9
$CHAMFERD
 40
0.0
  9
$SKPOLY
 70
     0
  9
$TDCREATE
 40
2456929.957019872
  9
$TDUPDATE
 40
2456929.957019884
  9
$TDINDWG
 40
0.0000000116
  9
$TDUSRTIMER
 40
0.0000000116
  9
$USRTIMER
 70
     1
  9
$ANGBASE
 50
0.0
  9
$ANGDIR
 70
     0
  9
$PDMODE
 70
     0
  9
$PDSIZE
 40
0.0
  9
$PLINEWID
 40
0.0
  9
$COORDS
 70
     1
  9
$SPLFRAME
 70
     0
  9
$SPLINETYPE
 70
     6
  9
$SPLINESEGS
 70
     8
  9
$ATTDIA
 70
     0
  9
$ATTREQ
 70
     1
  9
$HANDLING
 70
     1
  9
$HANDSEED
  5
199
  9
$SURFTAB1
 70
     6
  9
$SURFTAB2
 70
     6
  9
$SURFTYPE
 70
     6
  9
$SURFU
 70
     6
  9
$SURFV
 70
     6
  9
$UCSNAME
  2

  9
$UCSORG
 10
0.0
 20
0.0
 30
0.0
  9
$UCSXDIR
 10
1.0
 20
0.0
 30
0.0
  9
$UCSYDIR
 10
0.0
 20
1.0
 30
0.0
  9
$PUCSNAME
  2

  9
$PUCSORG
 10
0.0
 20
0.0
 30
0.0
  9
$PUCSXDIR
 10
1.0
 20
0.0
 30
0.0
  9
$PUCSYDIR
 10
0.0
 20
1.0
 30
0.0
  9
$USERI1
 70
     0
  9
$USERI2
 70
     0
  9
$USERI3
 70
     0
  9
$USERI4
 70
     0
  9
$USERI5
 70
     0
  9
$USERR1
 40
0.0
  9
$USERR2
 40
0.0
  9
$USERR3
 40
0.0
  9
$USERR4
 40
0.0
  9
$USERR5
 40
0.0
  9
$WORLDVIEW
 70
     1
  9
$SHADEDGE
 70
     3
  9
$SHADEDIF
 70
    70
  9
$TILEMODE
 70
     1
  9
$MAXACTVP
 70
    64
  9
$PINSBASE
 10
0.0
 20
0.0
 30
0.0
  9
$PLIMCHECK
 70
     0
  9
$PEXTMIN
 10
1.000000000000000E+20
 20
1.000000000000000E+20
 30
1.000000000000000E+20
  9
$PEXTMAX
 10
-1.000000000000000E+20
 20
-1.000000000000000E+20
 30
-1.000000000000000E+20
  9
$PLIMMIN
 10
0.0
 20
0.0
  9
$PLIMMAX
 10
12.0
 20
9.0
  9
$UNITMODE
 70
     0
  9
$VISRETAIN
 70
     1
  9
$PLINEGEN
 70
     0
  9
$PSLTSCALE
 70
     1
  9
$TREEDEPTH
 70
  3020
  9
$PICKSTYLE
 70
     1
  9
$CMLSTYLE
  2
STANDARD
  9
$CMLJUST
 70
     0
  9
$CMLSCALE
 40
1.0
  9
$PROXYGRAPHICS
 70
     1
  9
$MEASUREMENT
 70
     0
  0
ENDSEC
  0
SECTION
  2
CLASSES
  0
CLASS
  1
ACDBDICTIONARYWDFLT
  2
AcDbDictionaryWithDefault
  3
ObjectDBX Classes
 90
        0
280
     0
281
     0
  0
CLASS
  1
VISUALSTYLE
  2
AcDbVisualStyle
  3
ObjectDBX Classes
 90
     4095
280
     0
281
     0
  0
CLASS
  1
SCALE
  2
AcDbScale
  3
ObjectDBX Classes
 90
     1153
280
     0
281
     0
  0
CLASS
  1
DICTIONARYVAR
  2
AcDbDictionaryVar
  3
ObjectDBX Classes
 90
        0
280
     0
281
     0
  0
CLASS
  1
XRECORD
  2
AcDbXrecord
  3
AutoCAD 2000
 90
        0
280
     0
281
     0
  0
CLASS
  1
LWPOLYLINE
  2
AcDbPolyline
  3
AutoCAD 2000
 90
        0
280
     0
281
     1
  0
CLASS
  1
HATCH
  2
AcDbHatch
  3
AutoCAD 2000
 90
        0
280
     0
281
     1
  0
CLASS
  1
ACDBPLACEHOLDER
  2
AcDbPlaceHolder
  3
ObjectDBX Classes
 90
        0
280
     0
281
     0
  0
CLASS
  1
LAYOUT
  2
AcDbLayout
  3
ObjectDBX Classes
 90
        0
280
     0
281
     0
  0
ENDSEC
  0
SECTION
  2
TABLES
  0
TABLE
  2
VPORT
  5
8
330
0
100
AcDbSymbolTable
 70
     1
  0
VPORT
  5
29
330
8
100
AcDbSymbolTableRecord
100
AcDbViewportTableRecord
  2
*ACTIVE
 70
     0
 10
0.0
 20
0.0
 11
1.0
 21
1.0
 12
10.42990654205607
 22
4.5
 13
0.0
 23
0.0
 14
0.5
 24
0.5
 15
0.5
 25
0.5
 16
0.0
 26
0.0
 36
1.0
 17
0.0
 27
0.0
 37
0.0
 40
9.0
 41
1.972972972850329
 42
50.0
 43
0.0
 44
0.0
 50
0.0
 51
0.0
 71
     0
 72
   100
 73
     1
 74
     3
 75
     0
 76
     0
 77
     0
 78
     0
  0
ENDTAB
  0
TABLE
  2
LTYPE
  5
5
330
0
100
AcDbSymbolTable
 70
    11
  0
LTYPE
  5
14
330
5
100
AcDbSymbolTableRecord
100
AcDbLinetypeTableRecord
  2
BYBLOCK
 70
     0
  3

 72
    65
 73
     0
 40
0.0
  0
LTYPE
  5
15
330
5
100
AcDbSymbolTableRecord
100
AcDbLinetypeTableRecord
  2
BYLAYER
 70
     0
  3

 72
    65
 73
     0
 40
0.0
  0
LTYPE
  5
16
330
5
100
AcDbSymbolTableRecord
100
AcDbLinetypeTableRecord
  2
CONTINUOUS
 70
     0
  3
Solid line
 72
    65
 73
     0
 40
0.0
  0
LTYPE
  5
60
330
5
100
AcDbSymbolTableRecord
100
AcDbLinetypeTableRecord
  2
STITCH_G
 70
     0
  3
Graphite's line style                   
 72
    65
 73
     8
 40
25.18000000715256
 49
1.0
 74
     0
 49
-0.0450000017881393
 74
     0
 49
8.0
 74
     0
 49
-0.0450000017881393
 74
     0
 49
8.0
 74
     0
 49
-0.0450000017881393
 74
     0
 49
8.0
 74
     0
 49
-0.0450000017881393
 74
     0
  0
LTYPE
  5
61
330
5
100
AcDbSymbolTableRecord
100
AcDbLinetypeTableRecord
  2
CUTTING_G
 70
     0
  3
Graphite's line style                   
 72
    65
 73
    12
 40
52.27000001072884
 49
2.0
 74
     0
 49
-0.0450000017881393
 74
     0
 49
10.0
 74
     0
 49
-0.0450000017881393
 74
     0
 49
10.0
 74
     0
 49
-0.0450000017881393
 74
     0
 49
10.0
 74
     0
 49
-0.0450000017881393
 74
     0
 49
10.0
 74
     0
 49
-0.0450000017881393
 74
     0
 49
10.0
 74
     0
 49
-0.0450000017881393
 74
     0
  0
LTYPE
  5
62
330
5
100
AcDbSymbolTableRecord
100
AcDbLinetypeTableRecord
  2
DIVIDE_G
 70
     0
  3
Graphite's line style                   
 72
    65
 73
     4
 40
0.75
 49
0.0
 74
     0
 49
-0.375
 74
     0
 49
0.375
 74
     0
 49
0.0
 74
     0
  0
LTYPE
  5
63
330
5
100
AcDbSymbolTableRecord
100
AcDbLinetypeTableRecord
  2
BORDER_G
 70
     0
  3
Graphite's line style                   
 72
    65
 73
     4
 40
0.5
 49
0.0
 74
     0
 49
-0.25
 74
     0
 49
0.25
 74
     0
 49
0.0
 74
     0
  0
LTYPE
  5
64
330
5
100
AcDbSymbolTableRecord
100
AcDbLinetypeTableRecord
  2
DASHDOT_G
 70
     0
  3
Graphite's line style                   
 72
    65
 73
     4
 40
0.25
 49
0.0
 74
     0
 49
-0.125
 74
     0
 49
0.125
 74
     0
 49
0.0
 74
     0
  0
LTYPE
  5
65
330
5
100
AcDbSymbolTableRecord
100
AcDbLinetypeTableRecord
  2
PHANTOM_G
 70
     0
  3
Graphite's line style                   
 72
    65
 73
     6
 40
0.9674999937415123
 49
0.5
 74
     0
 49
-0.0724999979138374
 74
     0
 49
0.125
 74
     0
 49
-0.0724999979138374
 74
     0
 49
0.125
 74
     0
 49
-0.0724999979138374
 74
     0
  0
LTYPE
  5
66
330
5
100
AcDbSymbolTableRecord
100
AcDbLinetypeTableRecord
  2
HIDDEN_G
 70
     0
  3
Graphite's line style                   
 72
    65
 73
     2
 40
0.1974999979138374
 49
0.125
 74
     0
 49
-0.0724999979138374
 74
     0
  0
LTYPE
  5
67
330
5
100
AcDbSymbolTableRecord
100
AcDbLinetypeTableRecord
  2
DASHED_G
 70
     0
  3
Graphite's line style                   
 72
    65
 73
     2
 40
0.375
 49
0.25
 74
     0
 49
-0.125
 74
     0
  0
LTYPE
  5
68
330
5
100
AcDbSymbolTableRecord
100
AcDbLinetypeTableRecord
  2
CENTER_G
 70
     0
  3
Graphite's line style                   
 72
    65
 73
     2
 40
0.5724999979138374
 49
0.5
 74
     0
 49
-0.0724999979138374
 74
     0
  0
LTYPE
  5
69
330
5
100
AcDbSymbolTableRecord
100
AcDbLinetypeTableRecord
  2
DOTTED_G
 70
     0
  3

 72
    65
 73
     2
 40
0.1001
 49
0.0001
 74
     0
 49
-0.1
 74
     2
 75
     0
340
0
 46
0.0
 50
0.0
 44
0.0
 45
0.0
  9
.
  0
ENDTAB
  0
TABLE
  2
LAYER
  5
2
330
0
100
AcDbSymbolTable
 70
     6
  0
LAYER
  5
10
330
2
100
AcDbSymbolTableRecord
100
AcDbLayerTableRecord
  2
0
 70
     0
 62
     7
  6
CONTINUOUS
  0
LAYER
  5
6A
330
2
100
AcDbSymbolTableRecord
100
AcDbLayerTableRecord
  2
LAYER1
 70
     0
 62
     7
  6
CONTINUOUS
  0
LAYER
  5
6B
330
2
100
AcDbSymbolTableRecord
100
AcDbLayerTableRecord
  2
CONSTRUCTION
 70
     0
 62
     7
  6
CONTINUOUS
  0
LAYER
  5
6C
330
2
100
AcDbSymbolTableRecord
100
AcDbLayerTableRecord
  2
DIMENSION
 70
     0
 62
     7
  6
CONTINUOUS
  0
LAYER
  5
6D
330
2
100
AcDbSymbolTableRecord
100
AcDbLayerTableRecord
  2
NOMEASURE
 70
     0
 62
     7
  6
CONTINUOUS
  0
LAYER
  5
C4
330
2
100
AcDbSymbolTableRecord
100
AcDbLayerTableRecord
  2
DEFPOINTS
 70
     0
 62
     7
  6
CONTINUOUS
  0
ENDTAB
  0
TABLE
  2
STYLE
  5
3
330
0
100
AcDbSymbolTable
 70
     4
  0
STYLE
  5
11
330
3
100
AcDbSymbolTableRecord
100
AcDbTextStyleTableRecord
  2
STANDARD
 70
     0
 40
0.0
 41
1.0
 50
0.0
 71
     0
 42
0.2
  3
txt
  4

  0
STYLE
  5
3B
330
3
100
AcDbSymbolTableRecord
100
AcDbTextStyleTableRecord
  2
ODASHXSTYLE
 70
     0
 40
0.0
 41
1.0
 50
0.0
 71
     0
 42
0.2
  3
txt
  4

  0
STYLE
  5
3C
330
3
100
AcDbSymbolTableRecord
100
AcDbTextStyleTableRecord
  2
ODATTFSTYLE
 70
     0
 40
0.0
 41
1.0
 50
0.0
 71
     0
 42
0.2
  3
VERDANA.TTF
  4

1001
ACAD
1000
Verdana
1071
       34
  0
STYLE
  5
3D
330
3
100
AcDbSymbolTableRecord
100
AcDbTextStyleTableRecord
  2

 70
     1
 40
0.0
 41
1.0
 50
0.0
 71
     0
 42
22.45
  3
ltypeshp.shx
  4

  0
ENDTAB
  0
TABLE
  2
VIEW
  5
6
330
0
100
AcDbSymbolTable
 70
     0
  0
ENDTAB
  0
TABLE
  2
UCS
  5
7
330
0
100
AcDbSymbolTable
 70
     0
  0
ENDTAB
  0
TABLE
  2
APPID
  5
9
330
0
100
AcDbSymbolTable
 70
     1
  0
APPID
  5
12
330
9
100
AcDbSymbolTableRecord
100
AcDbRegAppTableRecord
  2
ACAD
 70
     0
  0
ENDTAB
  0
TABLE
  2
DIMSTYLE
  5
A
330
0
100
AcDbSymbolTable
 70
     9
  0
DIMSTYLE
105
27
330
A
100
AcDbSymbolTableRecord
100
AcDbDimStyleTableRecord
  2
STANDARD
 70
     0
  3

  4

  5

  6

  7

 40
1.0
 41
0.18
 42
0.0625
 43
0.38
 44
0.18
 45
0.0
 46
0.0
 47
0.0
 48
0.0
140
0.18
141
0.09
142
0.0
143
25.4
144
1.0
145
0.0
146
1.0
147
0.09
 71
     0
 72
     0
 73
     1
 74
     1
 75
     0
 76
     0
 77
     0
 78
     0
170
     0
171
     2
172
     0
173
     0
174
     0
175
     0
176
     0
177
     0
178
     0
270
     2
271
     4
272
     4
273
     2
274
     2
340
11
275
     0
280
     0
281
     0
282
     0
283
     1
284
     0
285
     0
286
     0
287
     3
288
     0
  0
DIMSTYLE
105
3E
102
{ACAD_REACTORS
330
A1
330
D4
330
E2
330
F0
330
FE
330
10C
330
11A
330
128
330
13A
330
148
330
156
330
164
102
}
330
A
100
AcDbSymbolTableRecord
100
AcDbDimStyleTableRecord
  2
ODADIMSTYLE0
 70
     0
  3

  4

  5

  6

  7

 40
1.0
 41
0.18
 42
0.0625
 43
0.38
 44
0.18
 45
0.0
 46
0.0
 47
0.0
 48
0.0
140
0.18
141
0.09
142
0.0
143
25.4
144
1.0
145
0.0
146
1.0
147
0.09
 71
     0
 72
     0
 73
     1
 74
     1
 75
     0
 76
     0
 77
     0
 78
     0
170
     0
171
     2
172
     0
173
     0
174
     0
175
     0
176
     0
177
     0
178
     0
270
     2
271
     4
272
     4
273
     2
274
     2
340
11
275
     0
280
     0
281
     0
282
     0
283
     1
284
     0
285
     0
286
     0
287
     3
288
     0
  0
DIMSTYLE
105
3F
330
A
100
AcDbSymbolTableRecord
100
AcDbDimStyleTableRecord
  2
ODADIMSTYLE1
 70
     0
  3

  4

  5

  6

  7

 40
1.0
 41
0.18
 42
0.0625
 43
0.38
 44
0.18
 45
0.0
 46
0.0
 47
0.0
 48
0.0
140
0.18
141
0.09
142
0.0
143
25.4
144
1.0
145
0.0
146
1.0
147
0.09
 71
     0
 72
     0
 73
     1
 74
     1
 75
     0
 76
     0
 77
     0
 78
     0
170
     0
171
     2
172
     0
173
     0
174
     0
175
     0
176
     0
177
     0
178
     0
270
     2
271
     4
272
     4
273
     2
274
     2
340
11
275
     0
280
     0
281
     0
282
     0
283
     1
284
     0
285
     0
286
     0
287
     3
288
     0
  0
DIMSTYLE
105
40
330
A
100
AcDbSymbolTableRecord
100
AcDbDimStyleTableRecord
  2
ODADIMSTYLE2
 70
     0
  3

  4

  5
CLOSEDBLANK
  6

  7

 40
1.0
 41
0.18
 42
0.0625
 43
0.38
 44
0.18
 45
0.0
 46
0.0
 47
0.0
 48
0.0
140
0.18
141
0.09
142
0.0
143
25.4
144
1.0
145
0.0
146
1.0
147
0.09
 71
     0
 72
     0
 73
     1
 74
     1
 75
     0
 76
     0
 77
     0
 78
     0
170
     0
171
     2
172
     0
173
     0
174
     0
175
     0
176
     0
177
     0
178
     0
270
     2
271
     4
272
     4
273
     2
274
     2
340
11
275
     0
280
     0
281
     0
282
     0
283
     1
284
     0
285
     0
286
     0
287
     3
288
     0
  0
DIMSTYLE
105
47
330
A
100
AcDbSymbolTableRecord
100
AcDbDimStyleTableRecord
  2
ODADIMSTYLE3
 70
     0
  3

  4

  5
NONE
  6

  7

 40
1.0
 41
0.18
 42
0.0625
 43
0.38
 44
0.18
 45
0.0
 46
0.0
 47
0.0
 48
0.0
140
0.18
141
0.09
142
0.0
143
25.4
144
1.0
145
0.0
146
1.0
147
0.09
 71
     0
 72
     0
 73
     1
 74
     1
 75
     0
 76
     0
 77
     0
 78
     0
170
     0
171
     2
172
     0
173
     0
174
     0
175
     0
176
     0
177
     0
178
     0
270
     2
271
     4
272
     4
273
     2
274
     2
340
11
275
     0
280
     0
281
     0
282
     0
283
     1
284
     0
285
     0
286
     0
287
     3
288
     0
  0
DIMSTYLE
105
4B
330
A
100
AcDbSymbolTableRecord
100
AcDbDimStyleTableRecord
  2
ODADIMSTYLE4
 70
     0
  3

  4

  5
OBLIQUE
  6

  7

 40
1.0
 41
0.18
 42
0.0625
 43
0.38
 44
0.18
 45
0.0
 46
0.0
 47
0.0
 48
0.0
140
0.18
141
0.09
142
0.0
143
25.4
144
1.0
145
0.0
146
1.0
147
0.09
 71
     0
 72
     0
 73
     1
 74
     1
 75
     0
 76
     0
 77
     0
 78
     0
170
     0
171
     2
172
     0
173
     0
174
     0
175
     0
176
     0
177
     0
178
     0
270
     2
271
     4
272
     4
273
     2
274
     2
340
11
275
     0
280
     0
281
     0
282
     0
283
     1
284
     0
285
     0
286
     0
287
     3
288
     0
  0
DIMSTYLE
105
50
330
A
100
AcDbSymbolTableRecord
100
AcDbDimStyleTableRecord
  2
ODADIMSTYLE5
 70
     0
  3

  4

  5

  6

  7

 40
1.0
 41
0.18
 42
0.0625
 43
0.38
 44
0.18
 45
0.0
 46
0.0
 47
0.0
 48
0.0
140
0.18
141
0.09
142
0.0
143
25.4
144
1.0
145
0.0
146
1.0
147
0.09
 71
     0
 72
     0
 73
     1
 74
     1
 75
     0
 76
     0
 77
     0
 78
     0
170
     0
171
     2
172
     0
173
     0
174
     0
175
     0
176
     0
177
     0
178
     0
270
     2
271
     4
272
     4
273
     2
274
     2
340
11
275
     0
280
     0
281
     0
282
     0
283
     1
284
     0
285
     0
286
     0
287
     3
288
     0
  0
DIMSTYLE
105
51
330
A
100
AcDbSymbolTableRecord
100
AcDbDimStyleTableRecord
  2
ODADIMSTYLE6
 70
     0
  3

  4

  5
DOT
  6

  7

 40
1.0
 41
0.18
 42
0.0625
 43
0.38
 44
0.18
 45
0.0
 46
0.0
 47
0.0
 48
0.0
140
0.18
141
0.09
142
0.0
143
25.4
144
1.0
145
0.0
146
1.0
147
0.09
 71
     0
 72
     0
 73
     1
 74
     1
 75
     0
 76
     0
 77
     0
 78
     0
170
     0
171
     2
172
     0
173
     0
174
     0
175
     0
176
     0
177
     0
178
     0
270
     2
271
     4
272
     4
273
     2
274
     2
340
11
275
     0
280
     0
281
     0
282
     0
283
     1
284
     0
285
     0
286
     0
287
     3
288
     0
  0
DIMSTYLE
105
5A
330
A
100
AcDbSymbolTableRecord
100
AcDbDimStyleTableRecord
  2
ODADIMSTYLE7
 70
     0
  3

  4

  5
DOTBLANK
  6

  7

 40
1.0
 41
0.18
 42
0.0625
 43
0.38
 44
0.18
 45
0.0
 46
0.0
 47
0.0
 48
0.0
140
0.18
141
0.09
142
0.0
143
25.4
144
1.0
145
0.0
146
1.0
147
0.09
 71
     0
 72
     0
 73
     1
 74
     1
 75
     0
 76
     0
 77
     0
 78
     0
170
     0
171
     2
172
     0
173
     0
174
     0
175
     0
176
     0
177
     0
178
     0
270
     2
271
     4
272
     4
273
     2
274
     2
340
11
275
     0
280
     0
281
     0
282
     0
283
     1
284
     0
285
     0
286
     0
287
     3
288
     0
  0
ENDTAB
  0
TABLE
  2
BLOCK_RECORD
  5
1
330
0
100
AcDbSymbolTable
 70
    18
  0
BLOCK_RECORD
  5
1F
330
1
100
AcDbSymbolTableRecord
100
AcDbBlockTableRecord
  2
*MODEL_SPACE
  0
BLOCK_RECORD
  5
1B
330
1
100
AcDbSymbolTableRecord
100
AcDbBlockTableRecord
  2
*PAPER_SPACE
  0
BLOCK_RECORD
  5
41
330
1
100
AcDbSymbolTableRecord
100
AcDbBlockTableRecord
  2
_CLOSEDBLANK
  0
BLOCK_RECORD
  5
48
330
1
100
AcDbSymbolTableRecord
100
AcDbBlockTableRecord
  2
_NONE
  0
BLOCK_RECORD
  5
4C
330
1
100
AcDbSymbolTableRecord
100
AcDbBlockTableRecord
  2
_OBLIQUE
  0
BLOCK_RECORD
  5
52
330
1
100
AcDbSymbolTableRecord
100
AcDbBlockTableRecord
  2
_DOT
  0
BLOCK_RECORD
  5
5B
330
1
100
AcDbSymbolTableRecord
100
AcDbBlockTableRecord
  2
_DOTBLANK
  0
BLOCK_RECORD
  5
C5
330
1
100
AcDbSymbolTableRecord
100
AcDbBlockTableRecord
  2
*D6
  0
BLOCK_RECORD
  5
D5
330
1
100
AcDbSymbolTableRecord
100
AcDbBlockTableRecord
  2
*D7
  0
BLOCK_RECORD
  5
E3
330
1
100
AcDbSymbolTableRecord
100
AcDbBlockTableRecord
  2
*D8
  0
BLOCK_RECORD
  5
F1
330
1
100
AcDbSymbolTableRecord
100
AcDbBlockTableRecord
  2
*D9
  0
BLOCK_RECORD
  5
FF
330
1
100
AcDbSymbolTableRecord
100
AcDbBlockTableRecord
  2
*D10
  0
BLOCK_RECORD
  5
10D
330
1
100
AcDbSymbolTableRecord
100
AcDbBlockTableRecord
  2
*D11
  0
BLOCK_RECORD
  5
11B
330
1
100
AcDbSymbolTableRecord
100
AcDbBlockTableRecord
  2
*D12
  0
BLOCK_RECORD
  5
129
330
1
100
AcDbSymbolTableRecord
100
AcDbBlockTableRecord
  2
*D13
  0
BLOCK_RECORD
  5
13B
330
1
100
AcDbSymbolTableRecord
100
AcDbBlockTableRecord
  2
*D14
  0
BLOCK_RECORD
  5
149
330
1
100
AcDbSymbolTableRecord
100
AcDbBlockTableRecord
  2
*D15
  0
BLOCK_RECORD
  5
157
330
1
100
AcDbSymbolTableRecord
100
AcDbBlockTableRecord
  2
*D16
  0
BLOCK_RECORD
  5
165
330
1
100
AcDbSymbolTableRecord
100
AcDbBlockTableRecord
  2
*D17
  0
ENDTAB
  0
ENDSEC
  0
SECTION
  2
BLOCKS
  0
BLOCK
  5
20
330
1F
100
AcDbEntity
  8
0
100
AcDbBlockBegin
  2
*MODEL_SPACE
 70
     0
 10
0.0
 20
0.0
 30
0.0
  3
*MODEL_SPACE
  1

  0
ENDBLK
  5
21
330
1F
100
AcDbEntity
  8
0
100
AcDbBlockEnd
  0
BLOCK
  5
1C
330
1B
100
AcDbEntity
 67
     1
  8
0
100
AcDbBlockBegin
  2
*PAPER_SPACE
 70
     0
 10
0.0
 20
0.0
 30
0.0
  3
*PAPER_SPACE
  1

  0
ENDBLK
  5
1D
330
1B
100
AcDbEntity
 67
     1
  8
0
100
AcDbBlockEnd
  0
BLOCK
  5
42
330
41
100
AcDbEntity
  8
0
100
AcDbBlockBegin
  2
_CLOSEDBLANK
 70
     0
 10
0.0
 20
0.0
 30
0.0
  3
_CLOSEDBLANK
  1

  0
LINE
  5
44
330
41
100
AcDbEntity
  8
0
  6
BYBLOCK
 62
     0
100
AcDbLine
 10
-1.0
 20
0.166667
 30
0.0
 11
0.0
 21
0.0
 31
0.0
  0
LINE
  5
45
330
41
100
AcDbEntity
  8
0
  6
BYBLOCK
 62
     0
100
AcDbLine
 10
0.0
 20
0.0
 30
0.0
 11
-1.0
 21
-0.166667
 31
0.0
  0
LINE
  5
46
330
41
100
AcDbEntity
  8
0
  6
BYBLOCK
 62
     0
100
AcDbLine
 10
-1.0
 20
0.166667
 30
0.0
 11
-1.0
 21
-0.166667
 31
0.0
  0
ENDBLK
  5
43
330
41
100
AcDbEntity
  8
0
100
AcDbBlockEnd
  0
BLOCK
  5
49
330
48
100
AcDbEntity
  8
0
100
AcDbBlockBegin
  2
_NONE
 70
     0
 10
0.0
 20
0.0
 30
0.0
  3
_NONE
  1

  0
ENDBLK
  5
4A
330
48
100
AcDbEntity
  8
0
100
AcDbBlockEnd
  0
BLOCK
  5
4D
330
4C
100
AcDbEntity
  8
0
100
AcDbBlockBegin
  2
_OBLIQUE
 70
     0
 10
0.0
 20
0.0
 30
0.0
  3
_OBLIQUE
  1

  0
LINE
  5
4F
330
4C
100
AcDbEntity
  8
0
  6
BYBLOCK
 62
     0
100
AcDbLine
 10
-0.5
 20
-0.5
 30
0.0
 11
0.5
 21
0.5
 31
0.0
  0
ENDBLK
  5
4E
330
4C
100
AcDbEntity
  8
0
100
AcDbBlockEnd
  0
BLOCK
  5
53
330
52
100
AcDbEntity
  8
0
100
AcDbBlockBegin
  2
_DOT
 70
     0
 10
0.0
 20
0.0
 30
0.0
  3
_DOT
  1

  0
POLYLINE
  5
55
330
52
100
AcDbEntity
  8
0
  6
BYBLOCK
 62
     0
100
AcDb2dPolyline
 66
     1
 10
0.0
 20
0.0
 30
0.0
 70
     1
 40
0.5
 41
0.5
  0
VERTEX
  5
57
330
55
100
AcDbEntity
  8
0
  6
BYBLOCK
 62
     0
100
AcDbVertex
100
AcDb2dVertex
 10
-0.25
 20
0.0
 30
0.0
 42
1.0
  0
VERTEX
  5
58
330
55
100
AcDbEntity
  8
0
  6
BYBLOCK
 62
     0
100
AcDbVertex
100
AcDb2dVertex
 10
0.25
 20
0.0
 30
0.0
 42
1.0
  0
SEQEND
  5
59
330
55
100
AcDbEntity
  8
0
  6
BYBLOCK
 62
     0
  0
LINE
  5
56
330
52
100
AcDbEntity
  8
0
  6
BYBLOCK
 62
     0
100
AcDbLine
 10
-0.5
 20
0.0
 30
0.0
 11
-1.0
 21
0.0
 31
0.0
  0
ENDBLK
  5
54
330
52
100
AcDbEntity
  8
0
100
AcDbBlockEnd
  0
BLOCK
  5
5C
330
5B
100
AcDbEntity
  8
0
100
AcDbBlockBegin
  2
_DOTBLANK
 70
     0
 10
0.0
 20
0.0
 30
0.0
  3
_DOTBLANK
  1

  0
CIRCLE
  5
5E
330
5B
100
AcDbEntity
  8
0
  6
BYBLOCK
 62
     0
100
AcDbCircle
 10
0.0
 20
0.0
 30
0.0
 40
0.5
  0
LINE
  5
5F
330
5B
100
AcDbEntity
  8
0
  6
BYBLOCK
 62
     0
100
AcDbLine
 10
-0.5
 20
0.0
 30
0.0
 11
-1.0
 21
0.0
 31
0.0
  0
ENDBLK
  5
5D
330
5B
100
AcDbEntity
  8
0
100
AcDbBlockEnd
  0
BLOCK
  5
D0
330
C5
100
AcDbEntity
  8
0
100
AcDbBlockBegin
  2
*D6
 70
     1
 10
0.0
 20
0.0
 30
0.0
  3
*D6
  1

  0
LINE
  5
C6
330
C5
100
AcDbEntity
  8
DIMENSION
 62
     0
100
AcDbLine
 10
-2.364562827766147
 20
8.25
 30
0.0
 11
-2.364562827766147
 21
8.7425
 31
0.0
  0
LINE
  5
C7
330
C5
100
AcDbEntity
  8
DIMENSION
 62
     0
100
AcDbLine
 10
0.8958128277661475
 20
8.25
 30
0.0
 11
0.8958128277661475
 21
8.7425
 31
0.0
  0
LINE
  5
C8
330
C5
100
AcDbEntity
  8
DIMENSION
 62
     0
100
AcDbLine
 10
-2.239562827766147
 20
8.5625
 30
0.0
 11
-1.241041679084301
 21
8.5625
 31
0.0
  0
LINE
  5
C9
330
C5
100
AcDbEntity
  8
DIMENSION
 62
     0
100
AcDbLine
 10
0.7708128277661475
 20
8.5625
 30
0.0
 11
-0.2277083209156991
 21
8.5625
 31
0.0
  0
SOLID
  5
CA
330
C5
100
AcDbEntity
  8
DIMENSION
 62
     0
100
AcDbTrace
 10
-2.239562827766147
 20
8.583333333333334
 30
0.0
 11
-2.239562827766147
 21
8.541666666666666
 31
0.0
 12
-2.364562827766147
 22
8.5625
 32
0.0
 13
-2.364562827766147
 23
8.5625
 33
0.0
  0
SOLID
  5
CB
330
C5
100
AcDbEntity
  8
DIMENSION
 62
     0
100
AcDbTrace
 10
0.7708128277661475
 20
8.541666666666666
 30
0.0
 11
0.7708128277661475
 21
8.583333333333334
 31
0.0
 12
0.8958128277661475
 22
8.5625
 32
0.0
 13
0.8958128277661475
 23
8.5625
 33
0.0
  0
MTEXT
  5
CC
330
C5
100
AcDbEntity
  8
DIMENSION
 62
     0
100
AcDbMText
 10
-0.734375
 20
8.5625
 30
0.0
 40
0.1666666716337204
 41
0.0
 71
     5
 72
     1
  1
\A1;3.2604
  0
POINT
  5
CD
330
C5
100
AcDbEntity
  8
DEFPOINTS
 62
     0
100
AcDbPoint
 10
-2.364562827766147
 20
8.1875
 30
0.0
  0
POINT
  5
CE
330
C5
100
AcDbEntity
  8
DEFPOINTS
 62
     0
100
AcDbPoint
 10
0.8958128277661475
 20
8.1875
 30
0.0
  0
POINT
  5
CF
330
C5
100
AcDbEntity
  8
DEFPOINTS
 62
     0
100
AcDbPoint
 10
0.8958128277661475
 20
8.5625
 30
0.0
  0
ENDBLK
  5
D1
330
C5
100
AcDbEntity
  8
0
100
AcDbBlockEnd
  0
BLOCK
  5
E0
330
D5
100
AcDbEntity
  8
0
100
AcDbBlockBegin
  2
*D7
 70
     1
 10
0.0
 20
0.0
 30
0.0
  3
*D7
  1

  0
LINE
  5
D6
330
D5
100
AcDbEntity
  8
DIMENSION
 62
     0
100
AcDbLine
 10
4.669921875000001
 20
1.4375
 30
0.0
 11
5.162421875000001
 21
1.4375
 31
0.0
  0
LINE
  5
D7
330
D5
100
AcDbEntity
  8
DIMENSION
 62
     0
100
AcDbLine
 10
4.669921875000001
 20
-0.53125
 30
0.0
 11
5.162421875000001
 21
-0.53125
 31
0.0
  0
LINE
  5
D8
330
D5
100
AcDbEntity
  8
DIMENSION
 62
     0
100
AcDbLine
 10
4.982421875000001
 20
1.3125
 30
0.0
 11
4.982421875000001
 21
0.6264583358168601
 31
0.0
  0
LINE
  5
D9
330
D5
100
AcDbEntity
  8
DIMENSION
 62
     0
100
AcDbLine
 10
4.982421875000001
 20
-0.40625
 30
0.0
 11
4.982421875000001
 21
0.2797916641831399
 31
0.0
  0
SOLID
  5
DA
330
D5
100
AcDbEntity
  8
DIMENSION
 62
     0
100
AcDbTrace
 10
5.003255208333334
 20
1.3125
 30
0.0
 11
4.961588541666668
 21
1.3125
 31
0.0
 12
4.982421875000001
 22
1.4375
 32
0.0
 13
4.982421875000001
 23
1.4375
 33
0.0
  0
SOLID
  5
DB
330
D5
100
AcDbEntity
  8
DIMENSION
 62
     0
100
AcDbTrace
 10
4.961588541666668
 20
-0.40625
 30
0.0
 11
5.003255208333334
 21
-0.40625
 31
0.0
 12
4.982421875000001
 22
-0.53125
 32
0.0
 13
4.982421875000001
 23
-0.53125
 33
0.0
  0
MTEXT
  5
DC
330
D5
100
AcDbEntity
  8
DIMENSION
 62
     0
100
AcDbMText
 10
4.982421875000001
 20
0.453125
 30
0.0
 40
0.1666666716337204
 41
0.0
 71
     5
 72
     1
  1
\A1;1.9688
  0
POINT
  5
DD
330
D5
100
AcDbEntity
  8
DEFPOINTS
 62
     0
100
AcDbPoint
 10
4.607421875000001
 20
1.4375
 30
0.0
  0
POINT
  5
DE
330
D5
100
AcDbEntity
  8
DEFPOINTS
 62
     0
100
AcDbPoint
 10
4.607421875000001
 20
-0.53125
 30
0.0
  0
POINT
  5
DF
330
D5
100
AcDbEntity
  8
DEFPOINTS
 62
     0
100
AcDbPoint
 10
4.982421875000001
 20
-0.53125
 30
0.0
  0
ENDBLK
  5
E1
330
D5
100
AcDbEntity
  8
0
100
AcDbBlockEnd
  0
BLOCK
  5
EE
330
E3
100
AcDbEntity
  8
0
100
AcDbBlockBegin
  2
*D8
 70
     1
 10
0.0
 20
0.0
 30
0.0
  3
*D8
  1

  0
LINE
  5
E4
330
E3
100
AcDbEntity
  8
DIMENSION
 62
     0
100
AcDbLine
 10
-4.106770833333334
 20
5.875
 30
0.0
 11
-3.614270833333334
 21
5.875
 31
0.0
  0
LINE
  5
E5
330
E3
100
AcDbEntity
  8
DIMENSION
 62
     0
100
AcDbLine
 10
-4.106770833333334
 20
5.4375
 30
0.0
 11
-3.614270833333334
 21
5.4375
 31
0.0
  0
LINE
  5
E6
330
E3
100
AcDbEntity
  8
DIMENSION
 62
     0
100
AcDbLine
 10
-3.794270833333334
 20
6.0
 30
0.0
 11
-3.794270833333334
 21
6.125
 31
0.0
  0
LINE
  5
E7
330
E3
100
AcDbEntity
  8
DIMENSION
 62
     0
100
AcDbLine
 10
-3.794270833333334
 20
5.3125
 30
0.0
 11
-3.794270833333334
 21
5.1875
 31
0.0
  0
SOLID
  5
E8
330
E3
100
AcDbEntity
  8
DIMENSION
 62
     0
100
AcDbTrace
 10
-3.815104166666667
 20
6.0
 30
0.0
 11
-3.7734375
 21
6.0
 31
0.0
 12
-3.794270833333334
 22
5.875
 32
0.0
 13
-3.794270833333334
 23
5.875
 33
0.0
  0
SOLID
  5
E9
330
E3
100
AcDbEntity
  8
DIMENSION
 62
     0
100
AcDbTrace
 10
-3.7734375
 20
5.3125
 30
0.0
 11
-3.815104166666667
 21
5.3125
 31
0.0
 12
-3.794270833333334
 22
5.4375
 32
0.0
 13
-3.794270833333334
 23
5.4375
 33
0.0
  0
MTEXT
  5
EA
330
E3
100
AcDbEntity
  8
DIMENSION
 62
     0
100
AcDbMText
 10
-3.794270833333334
 20
5.65625
 30
0.0
 40
0.1666666716337204
 41
0.0
 71
     5
 72
     1
  1
\A1;0.4375
  0
POINT
  5
EB
330
E3
100
AcDbEntity
  8
DEFPOINTS
 62
     0
100
AcDbPoint
 10
-4.169270833333334
 20
5.875
 30
0.0
  0
POINT
  5
EC
330
E3
100
AcDbEntity
  8
DEFPOINTS
 62
     0
100
AcDbPoint
 10
-4.169270833333334
 20
5.4375
 30
0.0
  0
POINT
  5
ED
330
E3
100
AcDbEntity
  8
DEFPOINTS
 62
     0
100
AcDbPoint
 10
-3.794270833333334
 20
5.4375
 30
0.0
  0
ENDBLK
  5
EF
330
E3
100
AcDbEntity
  8
0
100
AcDbBlockEnd
  0
BLOCK
  5
FC
330
F1
100
AcDbEntity
  8
0
100
AcDbBlockBegin
  2
*D9
 70
     1
 10
0.0
 20
0.0
 30
0.0
  3
*D9
  1

  0
LINE
  5
F2
330
F1
100
AcDbEntity
  8
DIMENSION
 62
     0
100
AcDbLine
 10
-1.815755208333334
 20
8.1875
 30
0.0
 11
-1.11296875
 21
8.1875
 31
0.0
  0
LINE
  5
F3
330
F1
100
AcDbEntity
  8
DIMENSION
 62
     0
100
AcDbLine
 10
-1.60546875
 20
5.875
 30
0.0
 11
-1.11296875
 21
5.875
 31
0.0
  0
LINE
  5
F4
330
F1
100
AcDbEntity
  8
DIMENSION
 62
     0
100
AcDbLine
 10
-1.29296875
 20
8.0625
 30
0.0
 11
-1.29296875
 21
7.20458333581686
 31
0.0
  0
LINE
  5
F5
330
F1
100
AcDbEntity
  8
DIMENSION
 62
     0
100
AcDbLine
 10
-1.29296875
 20
6.0
 30
0.0
 11
-1.29296875
 21
6.85791666418314
 31
0.0
  0
SOLID
  5
F6
330
F1
100
AcDbEntity
  8
DIMENSION
 62
     0
100
AcDbTrace
 10
-1.272135416666667
 20
8.0625
 30
0.0
 11
-1.313802083333333
 21
8.0625
 31
0.0
 12
-1.29296875
 22
8.1875
 32
0.0
 13
-1.29296875
 23
8.1875
 33
0.0
  0
SOLID
  5
F7
330
F1
100
AcDbEntity
  8
DIMENSION
 62
     0
100
AcDbTrace
 10
-1.313802083333333
 20
6.0
 30
0.0
 11
-1.272135416666667
 21
6.0
 31
0.0
 12
-1.29296875
 22
5.875
 32
0.0
 13
-1.29296875
 23
5.875
 33
0.0
  0
MTEXT
  5
F8
330
F1
100
AcDbEntity
  8
DIMENSION
 62
     0
100
AcDbMText
 10
-1.29296875
 20
7.03125
 30
0.0
 40
0.1666666716337204
 41
0.0
 71
     5
 72
     1
  1
\A1;2.3125
  0
POINT
  5
F9
330
F1
100
AcDbEntity
  8
DEFPOINTS
 62
     0
100
AcDbPoint
 10
-1.878255208333334
 20
8.1875
 30
0.0
  0
POINT
  5
FA
330
F1
100
AcDbEntity
  8
DEFPOINTS
 62
     0
100
AcDbPoint
 10
-1.66796875
 20
5.875
 30
0.0
  0
POINT
  5
FB
330
F1
100
AcDbEntity
  8
DEFPOINTS
 62
     0
100
AcDbPoint
 10
-1.29296875
 20
5.875
 30
0.0
  0
ENDBLK
  5
FD
330
F1
100
AcDbEntity
  8
0
100
AcDbBlockEnd
  0
BLOCK
  5
10A
330
FF
100
AcDbEntity
  8
0
100
AcDbBlockBegin
  2
*D10
 70
     1
 10
0.0
 20
0.0
 30
0.0
  3
*D10
  1

  0
LINE
  5
100
330
FF
100
AcDbEntity
  8
DIMENSION
 62
     0
100
AcDbLine
 10
-0.671875
 20
8.1875
 30
0.0
 11
-0.1793749999999994
 21
8.1875
 31
0.0
  0
LINE
  5
101
330
FF
100
AcDbEntity
  8
DIMENSION
 62
     0
100
AcDbLine
 10
-0.9414062500000007
 20
1.4375
 30
0.0
 11
-0.1793750000000006
 21
1.4375
 31
0.0
  0
LINE
  5
102
330
FF
100
AcDbEntity
  8
DIMENSION
 62
     0
100
AcDbLine
 10
-0.3593749999999994
 20
8.0625
 30
0.0
 11
-0.3593749999999999
 21
4.98583333581686
 31
0.0
  0
LINE
  5
103
330
FF
100
AcDbEntity
  8
DIMENSION
 62
     0
100
AcDbLine
 10
-0.3593750000000006
 20
1.5625
 30
0.0
 11
-0.3593750000000001
 21
4.63916666418314
 31
0.0
  0
SOLID
  5
104
330
FF
100
AcDbEntity
  8
DIMENSION
 62
     0
100
AcDbTrace
 10
-0.3385416666666661
 20
8.0625
 30
0.0
 11
-0.3802083333333327
 21
8.0625
 31
0.0
 12
-0.3593749999999994
 22
8.1875
 32
0.0
 13
-0.3593749999999994
 23
8.1875
 33
0.0
  0
SOLID
  5
105
330
FF
100
AcDbEntity
  8
DIMENSION
 62
     0
100
AcDbTrace
 10
-0.3802083333333339
 20
1.5625
 30
0.0
 11
-0.3385416666666673
 21
1.5625
 31
0.0
 12
-0.3593750000000006
 22
1.4375
 32
0.0
 13
-0.3593750000000006
 23
1.4375
 33
0.0
  0
MTEXT
  5
106
330
FF
100
AcDbEntity
  8
DIMENSION
 62
     0
100
AcDbMText
 10
-0.359375
 20
4.8125
 30
0.0
 40
0.1666666716337204
 41
0.0
 71
     5
 72
     1
  1
\A1;6.7500
  0
POINT
  5
107
330
FF
100
AcDbEntity
  8
DEFPOINTS
 62
     0
100
AcDbPoint
 10
-0.734375
 20
8.1875
 30
0.0
  0
POINT
  5
108
330
FF
100
AcDbEntity
  8
DEFPOINTS
 62
     0
100
AcDbPoint
 10
-1.003906250000001
 20
1.4375
 30
0.0
  0
POINT
  5
109
330
FF
100
AcDbEntity
  8
DEFPOINTS
 62
     0
100
AcDbPoint
 10
-0.3593750000000006
 20
1.4375
 30
0.0
  0
ENDBLK
  5
10B
330
FF
100
AcDbEntity
  8
0
100
AcDbBlockEnd
  0
BLOCK
  5
118
330
10D
100
AcDbEntity
  8
0
100
AcDbBlockBegin
  2
*D11
 70
     1
 10
0.0
 20
0.0
 30
0.0
  3
*D11
  1

  0
LINE
  5
10E
330
10D
100
AcDbEntity
  8
DIMENSION
 62
     0
100
AcDbLine
 10
-4.703125
 20
1.5
 30
0.0
 11
-4.703125
 21
1.9925
 31
0.0
  0
LINE
  5
10F
330
10D
100
AcDbEntity
  8
DIMENSION
 62
     0
100
AcDbLine
 10
-2.734375
 20
1.5
 30
0.0
 11
-2.734375
 21
1.9925
 31
0.0
  0
LINE
  5
110
330
10D
100
AcDbEntity
  8
DIMENSION
 62
     0
100
AcDbLine
 10
-4.578125
 20
1.8125
 30
0.0
 11
-4.209543662738232
 21
1.8125
 31
0.0
  0
LINE
  5
111
330
10D
100
AcDbEntity
  8
DIMENSION
 62
     0
100
AcDbLine
 10
-2.859375
 20
1.8125
 30
0.0
 11
-3.227956337261768
 21
1.8125
 31
0.0
  0
SOLID
  5
112
330
10D
100
AcDbEntity
  8
DIMENSION
 62
     0
100
AcDbTrace
 10
-4.578125
 20
1.833333333333333
 30
0.0
 11
-4.578125
 21
1.791666666666667
 31
0.0
 12
-4.703125
 22
1.8125
 32
0.0
 13
-4.703125
 23
1.8125
 33
0.0
  0
SOLID
  5
113
330
10D
100
AcDbEntity
  8
DIMENSION
 62
     0
100
AcDbTrace
 10
-2.859375
 20
1.791666666666667
 30
0.0
 11
-2.859375
 21
1.833333333333333
 31
0.0
 12
-2.734375
 22
1.8125
 32
0.0
 13
-2.734375
 23
1.8125
 33
0.0
  0
MTEXT
  5
114
330
10D
100
AcDbEntity
  8
DIMENSION
 62
     0
100
AcDbMText
 10
-3.71875
 20
1.8125
 30
0.0
 40
0.1666666716337204
 41
0.0
 71
     5
 72
     1
  1
\A1;1.9688
  0
POINT
  5
115
330
10D
100
AcDbEntity
  8
DEFPOINTS
 62
     0
100
AcDbPoint
 10
-4.703125
 20
1.4375
 30
0.0
  0
POINT
  5
116
330
10D
100
AcDbEntity
  8
DEFPOINTS
 62
     0
100
AcDbPoint
 10
-2.734375
 20
1.4375
 30
0.0
  0
POINT
  5
117
330
10D
100
AcDbEntity
  8
DEFPOINTS
 62
     0
100
AcDbPoint
 10
-2.734375
 20
1.8125
 30
0.0
  0
ENDBLK
  5
119
330
10D
100
AcDbEntity
  8
0
100
AcDbBlockEnd
  0
BLOCK
  5
126
330
11B
100
AcDbEntity
  8
0
100
AcDbBlockBegin
  2
*D12
 70
     1
 10
0.0
 20
0.0
 30
0.0
  3
*D12
  1

  0
LINE
  5
11C
330
11B
100
AcDbEntity
  8
DIMENSION
 62
     0
100
AcDbLine
 10
-5.9375
 20
3.125
 30
0.0
 11
-5.9375
 21
3.6175
 31
0.0
  0
LINE
  5
11D
330
11B
100
AcDbEntity
  8
DIMENSION
 62
     0
100
AcDbLine
 10
-0.421875
 20
3.125
 30
0.0
 11
-0.421875
 21
3.6175
 31
0.0
  0
LINE
  5
11E
330
11B
100
AcDbEntity
  8
DIMENSION
 62
     0
100
AcDbLine
 10
-5.8125
 20
3.4375
 30
0.0
 11
-3.682385924997784
 21
3.4375
 31
0.0
  0
LINE
  5
11F
330
11B
100
AcDbEntity
  8
DIMENSION
 62
     0
100
AcDbLine
 10
-0.546875
 20
3.4375
 30
0.0
 11
-2.676989075002216
 21
3.4375
 31
0.0
  0
SOLID
  5
120
330
11B
100
AcDbEntity
  8
DIMENSION
 62
     0
100
AcDbTrace
 10
-5.8125
 20
3.458333333333333
 30
0.0
 11
-5.8125
 21
3.416666666666667
 31
0.0
 12
-5.9375
 22
3.4375
 32
0.0
 13
-5.9375
 23
3.4375
 33
0.0
  0
SOLID
  5
121
330
11B
100
AcDbEntity
  8
DIMENSION
 62
     0
100
AcDbTrace
 10
-0.546875
 20
3.416666666666667
 30
0.0
 11
-0.546875
 21
3.458333333333333
 31
0.0
 12
-0.421875
 22
3.4375
 32
0.0
 13
-0.421875
 23
3.4375
 33
0.0
  0
MTEXT
  5
122
330
11B
100
AcDbEntity
  8
DIMENSION
 62
     0
100
AcDbMText
 10
-3.1796875
 20
3.4375
 30
0.0
 40
0.1666666716337204
 41
0.0
 71
     5
 72
     1
  1
\A1;5.5156
  0
POINT
  5
123
330
11B
100
AcDbEntity
  8
DEFPOINTS
 62
     0
100
AcDbPoint
 10
-5.9375
 20
3.0625
 30
0.0
  0
POINT
  5
124
330
11B
100
AcDbEntity
  8
DEFPOINTS
 62
     0
100
AcDbPoint
 10
-0.421875
 20
3.0625
 30
0.0
  0
POINT
  5
125
330
11B
100
AcDbEntity
  8
DEFPOINTS
 62
     0
100
AcDbPoint
 10
-0.421875
 20
3.4375
 30
0.0
  0
ENDBLK
  5
127
330
11B
100
AcDbEntity
  8
0
100
AcDbBlockEnd
  0
BLOCK
  5
134
330
129
100
AcDbEntity
  8
0
100
AcDbBlockBegin
  2
*D13
 70
     1
 10
0.0
 20
0.0
 30
0.0
  3
*D13
  1

  0
LINE
  5
12A
330
129
100
AcDbEntity
  8
DIMENSION
 62
     0
100
AcDbLine
 10
-4.484375
 20
6.875
 30
0.0
 11
-4.484375
 21
7.3675
 31
0.0
  0
LINE
  5
12B
330
129
100
AcDbEntity
  8
DIMENSION
 62
     0
100
AcDbLine
 10
-2.734375
 20
6.875
 30
0.0
 11
-2.734375
 21
7.3675
 31
0.0
  0
LINE
  5
12C
330
129
100
AcDbEntity
  8
DIMENSION
 62
     0
100
AcDbLine
 10
-4.359375
 20
7.1875
 30
0.0
 11
-4.100168662738232
 21
7.1875
 31
0.0
  0
LINE
  5
12D
330
129
100
AcDbEntity
  8
DIMENSION
 62
     0
100
AcDbLine
 10
-2.859375
 20
7.1875
 30
0.0
 11
-3.118581337261768
 21
7.1875
 31
0.0
  0
SOLID
  5
12E
330
129
100
AcDbEntity
  8
DIMENSION
 62
     0
100
AcDbTrace
 10
-4.359375
 20
7.208333333333333
 30
0.0
 11
-4.359375
 21
7.166666666666667
 31
0.0
 12
-4.484375
 22
7.1875
 32
0.0
 13
-4.484375
 23
7.1875
 33
0.0
  0
SOLID
  5
12F
330
129
100
AcDbEntity
  8
DIMENSION
 62
     0
100
AcDbTrace
 10
-2.859375
 20
7.166666666666667
 30
0.0
 11
-2.859375
 21
7.208333333333333
 31
0.0
 12
-2.734375
 22
7.1875
 32
0.0
 13
-2.734375
 23
7.1875
 33
0.0
  0
MTEXT
  5
130
330
129
100
AcDbEntity
  8
DIMENSION
 62
     0
100
AcDbMText
 10
-3.609375
 20
7.1875
 30
0.0
 40
0.1666666716337204
 41
0.0
 71
     5
 72
     1
  1
\A1;1.7500
  0
POINT
  5
131
330
129
100
AcDbEntity
  8
DEFPOINTS
 62
     0
100
AcDbPoint
 10
-4.484375
 20
6.8125
 30
0.0
  0
POINT
  5
132
330
129
100
AcDbEntity
  8
DEFPOINTS
 62
     0
100
AcDbPoint
 10
-2.734375
 20
6.8125
 30
0.0
  0
POINT
  5
133
330
129
100
AcDbEntity
  8
DEFPOINTS
 62
     0
100
AcDbPoint
 10
-2.734375
 20
7.1875
 30
0.0
  0
ENDBLK
  5
135
330
129
100
AcDbEntity
  8
0
100
AcDbBlockEnd
  0
BLOCK
  5
146
330
13B
100
AcDbEntity
  8
0
100
AcDbBlockBegin
  2
*D14
 70
     1
 10
0.0
 20
0.0
 30
0.0
  3
*D14
  1

  0
LINE
  5
13C
330
13B
100
AcDbEntity
  8
DIMENSION
 62
     0
100
AcDbLine
 10
3.684895833333333
 20
5.4375
 30
0.0
 11
4.177395833333334
 21
5.4375
 31
0.0
  0
LINE
  5
13D
330
13B
100
AcDbEntity
  8
DIMENSION
 62
     0
100
AcDbLine
 10
3.684895833333333
 20
1.4375
 30
0.0
 11
4.177395833333333
 21
1.4375
 31
0.0
  0
LINE
  5
13E
330
13B
100
AcDbEntity
  8
DIMENSION
 62
     0
100
AcDbLine
 10
3.997395833333333
 20
5.3125
 30
0.0
 11
3.997395833333333
 21
3.61083333581686
 31
0.0
  0
LINE
  5
13F
330
13B
100
AcDbEntity
  8
DIMENSION
 62
     0
100
AcDbLine
 10
3.997395833333333
 20
1.5625
 30
0.0
 11
3.997395833333333
 21
3.26416666418314
 31
0.0
  0
SOLID
  5
140
330
13B
100
AcDbEntity
  8
DIMENSION
 62
     0
100
AcDbTrace
 10
4.018229166666667
 20
5.3125
 30
0.0
 11
3.9765625
 21
5.3125
 31
0.0
 12
3.997395833333333
 22
5.4375
 32
0.0
 13
3.997395833333333
 23
5.4375
 33
0.0
  0
SOLID
  5
141
330
13B
100
AcDbEntity
  8
DIMENSION
 62
     0
100
AcDbTrace
 10
3.976562499999999
 20
1.5625
 30
0.0
 11
4.018229166666666
 21
1.5625
 31
0.0
 12
3.997395833333333
 22
1.4375
 32
0.0
 13
3.997395833333333
 23
1.4375
 33
0.0
  0
MTEXT
  5
142
330
13B
100
AcDbEntity
  8
DIMENSION
 62
     0
100
AcDbMText
 10
3.997395833333333
 20
3.4375
 30
0.0
 40
0.1666666716337204
 41
0.0
 71
     5
 72
     1
  1
\A1;4.0000
  0
POINT
  5
143
330
13B
100
AcDbEntity
  8
DEFPOINTS
 62
     0
100
AcDbPoint
 10
3.622395833333333
 20
5.4375
 30
0.0
  0
POINT
  5
144
330
13B
100
AcDbEntity
  8
DEFPOINTS
 62
     0
100
AcDbPoint
 10
3.622395833333333
 20
1.4375
 30
0.0
  0
POINT
  5
145
330
13B
100
AcDbEntity
  8
DEFPOINTS
 62
     0
100
AcDbPoint
 10
3.997395833333333
 20
1.4375
 30
0.0
  0
ENDBLK
  5
147
330
13B
100
AcDbEntity
  8
0
100
AcDbBlockEnd
  0
BLOCK
  5
154
330
149
100
AcDbEntity
  8
0
100
AcDbBlockBegin
  2
*D15
 70
     1
 10
0.0
 20
0.0
 30
0.0
  3
*D15
  1

  0
LINE
  5
14A
330
149
100
AcDbEntity
  8
DIMENSION
 62
     0
100
AcDbLine
 10
0.5638020833333335
 20
8.1875
 30
0.0
 11
1.056302083333334
 21
8.1875
 31
0.0
  0
LINE
  5
14B
330
149
100
AcDbEntity
  8
DIMENSION
 62
     0
100
AcDbLine
 10
0.430989583333333
 20
5.4375
 30
0.0
 11
1.056302083333333
 21
5.4375
 31
0.0
  0
LINE
  5
14C
330
149
100
AcDbEntity
  8
DIMENSION
 62
     0
100
AcDbLine
 10
0.8763020833333337
 20
8.0625
 30
0.0
 11
0.8763020833333335
 21
6.98583333581686
 31
0.0
  0
LINE
  5
14D
330
149
100
AcDbEntity
  8
DIMENSION
 62
     0
100
AcDbLine
 10
0.8763020833333333
 20
5.5625
 30
0.0
 11
0.8763020833333335
 21
6.63916666418314
 31
0.0
  0
SOLID
  5
14E
330
149
100
AcDbEntity
  8
DIMENSION
 62
     0
100
AcDbTrace
 10
0.8971354166666671
 20
8.0625
 30
0.0
 11
0.8554687500000003
 21
8.0625
 31
0.0
 12
0.8763020833333337
 22
8.1875
 32
0.0
 13
0.8763020833333337
 23
8.1875
 33
0.0
  0
SOLID
  5
14F
330
149
100
AcDbEntity
  8
DIMENSION
 62
     0
100
AcDbTrace
 10
0.8554687499999999
 20
5.5625
 30
0.0
 11
0.8971354166666666
 21
5.5625
 31
0.0
 12
0.8763020833333333
 22
5.4375
 32
0.0
 13
0.8763020833333333
 23
5.4375
 33
0.0
  0
MTEXT
  5
150
330
149
100
AcDbEntity
  8
DIMENSION
 62
     0
100
AcDbMText
 10
0.8763020833333335
 20
6.8125
 30
0.0
 40
0.1666666716337204
 41
0.0
 71
     5
 72
     1
  1
\A1;2.7500
  0
POINT
  5
151
330
149
100
AcDbEntity
  8
DEFPOINTS
 62
     0
100
AcDbPoint
 10
0.5013020833333335
 20
8.1875
 30
0.0
  0
POINT
  5
152
330
149
100
AcDbEntity
  8
DEFPOINTS
 62
     0
100
AcDbPoint
 10
0.368489583333333
 20
5.4375
 30
0.0
  0
POINT
  5
153
330
149
100
AcDbEntity
  8
DEFPOINTS
 62
     0
100
AcDbPoint
 10
0.8763020833333333
 20
5.4375
 30
0.0
  0
ENDBLK
  5
155
330
149
100
AcDbEntity
  8
0
100
AcDbBlockEnd
  0
BLOCK
  5
162
330
157
100
AcDbEntity
  8
0
100
AcDbBlockBegin
  2
*D16
 70
     1
 10
0.0
 20
0.0
 30
0.0
  3
*D16
  1

  0
LINE
  5
158
330
157
100
AcDbEntity
  8
DIMENSION
 62
     0
100
AcDbLine
 10
1.453125
 20
0.625
 30
0.0
 11
1.453125
 21
1.1175
 31
0.0
  0
LINE
  5
159
330
157
100
AcDbEntity
  8
DIMENSION
 62
     0
100
AcDbLine
 10
3.265625
 20
0.625
 30
0.0
 11
3.265625
 21
1.1175
 31
0.0
  0
LINE
  5
15A
330
157
100
AcDbEntity
  8
DIMENSION
 62
     0
100
AcDbLine
 10
1.578125
 20
0.9375
 30
0.0
 11
1.868581337261768
 21
0.9375
 31
0.0
  0
LINE
  5
15B
330
157
100
AcDbEntity
  8
DIMENSION
 62
     0
100
AcDbLine
 10
3.140625
 20
0.9375
 30
0.0
 11
2.850168662738232
 21
0.9375
 31
0.0
  0
SOLID
  5
15C
330
157
100
AcDbEntity
  8
DIMENSION
 62
     0
100
AcDbTrace
 10
1.578125
 20
0.9583333333333334
 30
0.0
 11
1.578125
 21
0.9166666666666666
 31
0.0
 12
1.453125
 22
0.9375
 32
0.0
 13
1.453125
 23
0.9375
 33
0.0
  0
SOLID
  5
15D
330
157
100
AcDbEntity
  8
DIMENSION
 62
     0
100
AcDbTrace
 10
3.140625
 20
0.9166666666666666
 30
0.0
 11
3.140625
 21
0.9583333333333334
 31
0.0
 12
3.265625
 22
0.9375
 32
0.0
 13
3.265625
 23
0.9375
 33
0.0
  0
MTEXT
  5
15E
330
157
100
AcDbEntity
  8
DIMENSION
 62
     0
100
AcDbMText
 10
2.359375
 20
0.9375
 30
0.0
 40
0.1666666716337204
 41
0.0
 71
     5
 72
     1
  1
\A1;1.8125
  0
POINT
  5
15F
330
157
100
AcDbEntity
  8
DEFPOINTS
 62
     0
100
AcDbPoint
 10
1.453125
 20
0.5625
 30
0.0
  0
POINT
  5
160
330
157
100
AcDbEntity
  8
DEFPOINTS
 62
     0
100
AcDbPoint
 10
3.265625
 20
0.5625
 30
0.0
  0
POINT
  5
161
330
157
100
AcDbEntity
  8
DEFPOINTS
 62
     0
100
AcDbPoint
 10
3.265625
 20
0.9375
 30
0.0
  0
ENDBLK
  5
163
330
157
100
AcDbEntity
  8
0
100
AcDbBlockEnd
  0
BLOCK
  5
170
330
165
100
AcDbEntity
  8
0
100
AcDbBlockBegin
  2
*D17
 70
     1
 10
0.0
 20
0.0
 30
0.0
  3
*D17
  1

  0
LINE
  5
166
330
165
100
AcDbEntity
  8
DIMENSION
 62
     0
100
AcDbLine
 10
1.265625
 20
5.5
 30
0.0
 11
1.265625
 21
5.9925
 31
0.0
  0
LINE
  5
167
330
165
100
AcDbEntity
  8
DIMENSION
 62
     0
100
AcDbLine
 10
3.234375
 20
5.5
 30
0.0
 11
3.234375
 21
5.9925
 31
0.0
  0
LINE
  5
168
330
165
100
AcDbEntity
  8
DIMENSION
 62
     0
100
AcDbLine
 10
1.390625
 20
5.8125
 30
0.0
 11
1.759206337261768
 21
5.8125
 31
0.0
  0
LINE
  5
169
330
165
100
AcDbEntity
  8
DIMENSION
 62
     0
100
AcDbLine
 10
3.109375
 20
5.8125
 30
0.0
 11
2.740793662738232
 21
5.8125
 31
0.0
  0
SOLID
  5
16A
330
165
100
AcDbEntity
  8
DIMENSION
 62
     0
100
AcDbTrace
 10
1.390625
 20
5.833333333333333
 30
0.0
 11
1.390625
 21
5.791666666666667
 31
0.0
 12
1.265625
 22
5.8125
 32
0.0
 13
1.265625
 23
5.8125
 33
0.0
  0
SOLID
  5
16B
330
165
100
AcDbEntity
  8
DIMENSION
 62
     0
100
AcDbTrace
 10
3.109375
 20
5.791666666666667
 30
0.0
 11
3.109375
 21
5.833333333333333
 31
0.0
 12
3.234375
 22
5.8125
 32
0.0
 13
3.234375
 23
5.8125
 33
0.0
  0
MTEXT
  5
16C
330
165
100
AcDbEntity
  8
DIMENSION
 62
     0
100
AcDbMText
 10
2.25
 20
5.8125
 30
0.0
 40
0.1666666716337204
 41
0.0
 71
     5
 72
     1
  1
\A1;1.9688
  0
POINT
  5
16D
330
165
100
AcDbEntity
  8
DEFPOINTS
 62
     0
100
AcDbPoint
 10
1.265625
 20
5.4375
 30
0.0
  0
POINT
  5
16E
330
165
100
AcDbEntity
  8
DEFPOINTS
 62
     0
100
AcDbPoint
 10
3.234375
 20
5.4375
 30
0.0
  0
POINT
  5
16F
330
165
100
AcDbEntity
  8
DEFPOINTS
 62
     0
100
AcDbPoint
 10
3.234375
 20
5.8125
 30
0.0
  0
ENDBLK
  5
171
330
165
100
AcDbEntity
  8
0
100
AcDbBlockEnd
  0
ENDSEC
  0
SECTION
  2
ENTITIES
  0
ARC
  5
6E
330
1F
100
AcDbEntity
  8
LAYER1
 62
     7
100
AcDbCircle
 10
-6.234375
 20
-0.5625
 30
0.0
 40
1.0
210
0.0
220
0.0
230
-1.0
100
AcDbArc
 50
180.0
 51
228.5903778907291
  0
LINE
  5
6F
330
1F
100
AcDbEntity
  8
LAYER1
 62
     7
100
AcDbLine
 10
-2.765625
 20
1.125
 30
0.0
 11
-2.859375
 21
1.0625
 31
0.0
  0
LINE
  5
70
330
1F
100
AcDbEntity
  8
LAYER1
 62
     7
100
AcDbLine
 10
1.296875
 20
1.125
 30
0.0
 11
1.390625
 21
1.0625
 31
0.0
  0
LINE
  5
71
330
1F
100
AcDbEntity
  8
LAYER1
 62
     7
100
AcDbLine
 10
-2.359375
 20
7.4375
 30
0.0
 11
-2.359375
 21
7.40625
 31
0.0
  0
LINE
  5
72
330
1F
100
AcDbEntity
  8
LAYER1
 62
     7
100
AcDbLine
 10
-2.734375
 20
7.4375
 30
0.0
 11
-2.359375
 21
7.4375
 31
0.0
  0
LINE
  5
73
330
1F
100
AcDbEntity
  8
LAYER1
 62
     7
100
AcDbLine
 10
7.265625
 20
1.4375
 30
0.0
 11
7.265625
 21
-0.5625
 31
0.0
  0
LINE
  5
74
330
1F
100
AcDbEntity
  8
LAYER1
  6
CENTER_G
 62
     3
100
AcDbLine
 10
-2.734375
 20
5.4375
 30
0.0
 11
-2.734375
 21
1.4375
 31
0.0
  0
ARC
  5
75
330
1F
100
AcDbEntity
  8
LAYER1
 62
     7
100
AcDbCircle
 10
1.703125
 20
7.4375
 30
0.0
 40
1.0
210
0.0
220
0.0
230
-1.0
100
AcDbArc
 50
0.0
 51
48.59037789072915
  0
LINE
  5
76
330
1F
100
AcDbEntity
  8
LAYER1
 62
     7
100
AcDbLine
 10
1.515625
 20
0.0625
 30
0.0
 11
3.265625
 21
0.0625
 31
0.0
  0
LINE
  5
77
330
1F
100
AcDbEntity
  8
LAYER1
 62
     7
100
AcDbLine
 10
7.265625
 20
-0.5625
 30
0.0
 11
6.890625
 21
-0.5625
 31
0.0
  0
LINE
  5
78
330
1F
100
AcDbEntity
  8
LAYER1
 62
     7
100
AcDbLine
 10
7.265625
 20
5.4375
 30
0.0
 11
8.140625
 21
5.203044456622771
 31
0.0
  0
LINE
  5
79
330
1F
100
AcDbEntity
  8
LAYER1
 62
     7
100
AcDbLine
 10
-4.703125
 20
0.0625
 30
0.0
 11
-4.703125
 21
1.4375
 31
0.0
  0
LINE
  5
7A
330
1F
100
AcDbEntity
  8
LAYER1
  6
CENTER_G
 62
     3
100
AcDbLine
 10
-4.703125
 20
1.4375
 30
0.0
 11
-2.765625
 21
1.4375
 31
0.0
  0
LINE
  5
7B
330
1F
100
AcDbEntity
  8
LAYER1
 62
     7
100
AcDbLine
 10
-4.703125
 20
5.75
 30
0.0
 11
-4.609375
 21
5.8125
 31
0.0
  0
LINE
  5
7C
330
1F
100
AcDbEntity
  8
LAYER1
  6
CENTER_G
 62
     3
100
AcDbLine
 10
-4.703125
 20
5.4375
 30
0.0
 11
3.234375
 21
5.4375
 31
0.0
  0
LINE
  5
7D
330
1F
100
AcDbEntity
  8
LAYER1
 62
     7
100
AcDbLine
 10
-2.984375
 20
0.0625
 30
0.0
 11
-4.703125
 21
0.0625
 31
0.0
  0
LINE
  5
7E
330
1F
100
AcDbEntity
  8
LAYER1
 62
     7
100
AcDbLine
 10
3.635437172233852
 20
-1.3125
 30
0.0
 11
6.895812827766148
 21
-1.3125
 31
0.0
  0
LINE
  5
7F
330
1F
100
AcDbEntity
  8
LAYER1
 62
     7
100
AcDbLine
 10
-4.609375
 20
5.8125
 30
0.0
 11
-4.484375
 21
6.8125
 31
0.0
  0
LINE
  5
80
330
1F
100
AcDbEntity
  8
LAYER1
 62
     7
100
AcDbLine
 10
-4.703125
 20
5.4375
 30
0.0
 11
-4.703125
 21
1.4375
 31
0.0
  0
LINE
  5
81
330
1F
100
AcDbEntity
  8
LAYER1
 62
     7
100
AcDbLine
 10
-4.703125
 20
5.75
 30
0.0
 11
-4.703125
 21
5.4375
 31
0.0
  0
LINE
  5
82
330
1F
100
AcDbEntity
  8
LAYER1
 62
     7
100
AcDbLine
 10
3.265625
 20
-0.5625
 30
0.0
 11
3.640625
 21
-0.5625
 31
0.0
  0
LINE
  5
83
330
1F
100
AcDbEntity
  8
LAYER1
 62
     7
100
AcDbLine
 10
8.140625
 20
1.671955543377233
 30
0.0
 11
8.140625
 21
5.203044456622771
 31
0.0
  0
LINE
  5
84
330
1F
100
AcDbEntity
  8
LAYER1
 62
     7
100
AcDbLine
 10
3.265625
 20
1.4375
 30
0.0
 11
3.265625
 21
-0.5625
 31
0.0
  0
LINE
  5
85
330
1F
100
AcDbEntity
  8
LAYER1
 62
     7
100
AcDbLine
 10
3.140625
 20
5.8125
 30
0.0
 11
3.015625
 21
6.8125
 31
0.0
  0
LINE
  5
86
330
1F
100
AcDbEntity
  8
LAYER1
 62
     7
100
AcDbLine
 10
3.234375
 20
5.75
 30
0.0
 11
3.140625
 21
5.8125
 31
0.0
  0
ARC
  5
87
330
1F
100
AcDbEntity
  8
LAYER1
 62
     7
100
AcDbCircle
 10
4.296875
 20
-0.5625
 30
0.0
 40
1.0
100
AcDbArc
 50
180.0
 51
228.5903778907291
  0
LINE
  5
88
330
1F
100
AcDbEntity
  8
LAYER1
 62
     7
100
AcDbLine
 10
-2.364562827766147
 20
8.1875
 30
0.0
 11
0.8958128277661475
 21
8.1875
 31
0.0
  0
LINE
  5
89
330
1F
100
AcDbEntity
  8
LAYER1
 62
     7
100
AcDbLine
 10
1.390625
 20
1.0625
 30
0.0
 11
1.515625
 21
0.0625
 31
0.0
  0
LINE
  5
8A
330
1F
100
AcDbEntity
  8
LAYER1
 62
     7
100
AcDbLine
 10
1.296875
 20
1.4375
 30
0.0
 11
1.265625
 21
1.4375
 31
0.0
  0
LINE
  5
8B
330
1F
100
AcDbEntity
  8
LAYER1
 62
     7
100
AcDbLine
 10
1.296875
 20
1.125
 30
0.0
 11
1.296875
 21
1.4375
 31
0.0
  0
LINE
  5
8C
330
1F
100
AcDbEntity
  8
LAYER1
  6
CENTER_G
 62
     3
100
AcDbLine
 10
1.296875
 20
1.4375
 30
0.0
 11
7.265625
 21
1.4375
 31
0.0
  0
LINE
  5
8D
330
1F
100
AcDbEntity
  8
LAYER1
 62
     7
100
AcDbLine
 10
-2.765625
 20
1.4375
 30
0.0
 11
-2.765625
 21
1.125
 31
0.0
  0
LINE
  5
8E
330
1F
100
AcDbEntity
  8
LAYER1
 62
     7
100
AcDbLine
 10
-2.734375
 20
5.4375
 30
0.0
 11
-2.734375
 21
7.4375
 31
0.0
  0
LINE
  5
8F
330
1F
100
AcDbEntity
  8
LAYER1
 62
     7
100
AcDbLine
 10
-4.484375
 20
6.8125
 30
0.0
 11
-2.734375
 21
6.8125
 31
0.0
  0
ARC
  5
90
330
1F
100
AcDbEntity
  8
LAYER1
 62
     7
100
AcDbCircle
 10
0.234375
 20
7.4375
 30
0.0
 40
1.0
100
AcDbArc
 50
0.0
 51
48.59037789072915
  0
LINE
  5
91
330
1F
100
AcDbEntity
  8
LAYER1
 62
     7
100
AcDbLine
 10
1.265625
 20
5.4375
 30
0.0
 11
1.265625
 21
7.4375
 31
0.0
  0
LINE
  5
92
330
1F
100
AcDbEntity
  8
LAYER1
 62
     7
100
AcDbLine
 10
1.265625
 20
7.4375
 30
0.0
 11
0.890625
 21
7.4375
 31
0.0
  0
LINE
  5
93
330
1F
100
AcDbEntity
  8
LAYER1
 62
     7
100
AcDbLine
 10
0.890625
 20
7.4375
 30
0.0
 11
0.890625
 21
7.40625
 31
0.0
  0
LINE
  5
94
330
1F
100
AcDbEntity
  8
LAYER1
 62
     7
100
AcDbLine
 10
6.890625
 20
-0.5625
 30
0.0
 11
6.890625
 21
-0.53125
 31
0.0
  0
LINE
  5
95
330
1F
100
AcDbEntity
  8
LAYER1
  6
CENTER_G
 62
     3
100
AcDbLine
 10
3.640625
 20
-0.53125
 30
0.0
 11
6.890625
 21
-0.53125
 31
0.0
  0
LINE
  5
96
330
1F
100
AcDbEntity
  8
LAYER1
 62
     7
100
AcDbLine
 10
3.234375
 20
5.4375
 30
0.0
 11
3.234375
 21
5.75
 31
0.0
  0
LINE
  5
97
330
1F
100
AcDbEntity
  8
LAYER1
 62
     7
100
AcDbLine
 10
3.015625
 20
6.8125
 30
0.0
 11
1.265625
 21
6.8125
 31
0.0
  0
LINE
  5
98
330
1F
100
AcDbEntity
  8
LAYER1
 62
     7
100
AcDbLine
 10
3.234375
 20
5.4375
 30
0.0
 11
7.265625
 21
5.4375
 31
0.0
  0
LINE
  5
99
330
1F
100
AcDbEntity
  8
LAYER1
  6
CENTER_G
 62
     3
100
AcDbLine
 10
1.265625
 20
1.4375
 30
0.0
 11
1.265625
 21
5.4375
 31
0.0
  0
LINE
  5
9A
330
1F
100
AcDbEntity
  8
LAYER1
  6
CENTER_G
 62
     3
100
AcDbLine
 10
3.265625
 20
5.4375
 30
0.0
 11
3.265625
 21
1.4375
 31
0.0
  0
LINE
  5
9B
330
1F
100
AcDbEntity
  8
LAYER1
 62
     7
100
AcDbLine
 10
-2.765625
 20
1.4375
 30
0.0
 11
1.265625
 21
1.4375
 31
0.0
  0
LINE
  5
9C
330
1F
100
AcDbEntity
  8
LAYER1
 62
     7
100
AcDbLine
 10
7.265625
 20
1.4375
 30
0.0
 11
8.140625
 21
1.671955543377233
 31
0.0
  0
LINE
  5
9D
330
1F
100
AcDbEntity
  8
LAYER1
  6
CENTER_G
 62
     3
100
AcDbLine
 10
-2.359375
 20
7.40625
 30
0.0
 11
0.890625
 21
7.40625
 31
0.0
  0
LINE
  5
9E
330
1F
100
AcDbEntity
  8
LAYER1
  6
CENTER_G
 62
     3
100
AcDbLine
 10
7.265625
 20
1.4375
 30
0.0
 11
7.265625
 21
5.4375
 31
0.0
  0
LINE
  5
9F
330
1F
100
AcDbEntity
  8
LAYER1
 62
     7
100
AcDbLine
 10
3.640625
 20
-0.5625
 30
0.0
 11
3.640625
 21
-0.53125
 31
0.0
  0
LINE
  5
A0
330
1F
100
AcDbEntity
  8
LAYER1
 62
     7
100
AcDbLine
 10
-2.859375
 20
1.0625
 30
0.0
 11
-2.984375
 21
0.0625
 31
0.0
  0
DIMENSION
  5
A1
330
1F
100
AcDbEntity
  8
DIMENSION
 62
     5
100
AcDbDimension
  2
*D6
 10
0.8958128277661475
 20
8.5625
 30
0.0
 11
-0.734375
 21
8.5625
 31
0.0
 70
   160
  3
ODADIMSTYLE0
100
AcDbAlignedDimension
 13
-2.364562827766147
 23
8.1875
 33
0.0
 14
0.8958128277661475
 24
8.1875
 34
0.0
100
AcDbRotatedDimension
1001
ACAD
1000
DSTYLE
1002
{
1070
   271
1070
     4
1070
    41
1040
0.125
1070
   140
1040
0.1666666716337204
1002
}
  0
SPLINE
  5
D2
330
1F
100
AcDbEntity
  8
LAYER1
 62
     7
100
AcDbSpline
210
0.0
220
0.0
230
1.0
 70
     8
 71
     3
 72
    44
 73
    40
 74
     0
 42
0.0
 43
0.0
 40
0.0
 40
0.0
 40
0.0
 40
0.0
 40
0.0578365228684894
 40
0.0817270530873877
 40
0.1065352137993525
 40
0.1199150547396046
 40
0.1589905564355059
 40
0.1827368586471332
 40
0.198224883993114
 40
0.2235405070581944
 40
0.247170927716903
 40
0.2749738245083204
 40
0.3250191295535796
 40
0.3705471428462008
 40
0.3880209428051238
 40
0.4140056761372026
 40
0.4265163727869421
 40
0.454857937577767
 40
0.4956077648298205
 40
0.5215378673135795
 40
0.5557937893100799
 40
0.5737285418882152
 40
0.6116608160551422
 40
0.647735078828866
 40
0.6625811421993504
 40
0.6683926918328424
 40
0.6917135901647598
 40
0.7364316689302086
 40
0.7425042929812804
 40
0.764908415819626
 40
0.7762468406399954
 40
0.7829635321696102
 40
0.8028546545330784
 40
0.8148571427969102
 40
0.8451392827269153
 40
0.868616449899271
 40
0.8878586200852041
 40
0.9331093804361927
 40
1.0
 40
1.0
 40
1.0
 40
1.0
 10
-5.671875
 20
1.84375
 30
0.0
 10
-5.773341547961467
 20
2.754909783937854
 30
0.0
 10
-5.916720878885225
 20
4.042442303870041
 30
0.0
 10
-4.416565072910451
 20
4.218343412564507
 30
0.0
 10
-3.667624236683343
 20
4.331020431820854
 30
0.0
 10
-2.705664240649131
 20
4.380544759427814
 30
0.0
 10
-1.680591048775208
 20
5.105947642079642
 30
0.0
 10
-2.253144503504713
 20
6.449494684576607
 30
0.0
 10
-1.222839248510971
 20
6.401826708926257
 30
0.0
 10
-0.4049712825160766
 20
6.332241630178559
 30
0.0
 10
0.069986975655641
 20
5.411613942424684
 30
0.0
 10
0.4190405788293042
 20
3.968481981496111
 30
0.0
 10
2.168775056883369
 20
4.666701837330134
 30
0.0
 10
4.228008008717883
 20
4.400243820710551
 30
0.0
 10
3.866041431103151
 20
5.719860247987253
 30
0.0
 10
4.476717906298851
 20
6.275785851613127
 30
0.0
 10
5.494933231974489
 20
6.342506542387042
 30
0.0
 10
4.994015699271991
 20
4.852265249534089
 30
0.0
 10
5.241872659337703
 20
3.967585290928485
 30
0.0
 10
5.064770018058823
 20
2.277699210380908
 30
0.0
 10
6.437547173110908
 20
2.762207661800506
 30
0.0
 10
7.476872443721037
 20
2.559508482782478
 30
0.0
 10
8.846486199703087
 20
3.453424993726194
 30
0.0
 10
9.317020910141768
 20
1.448498614993862
 30
0.0
 10
8.504181008992168
 20
1.353213155653829
 30
0.0
 10
7.939557767684328
 20
1.302888097639952
 30
0.0
 10
7.429069523311281
 20
2.545004271508205
 30
0.0
 10
8.955581485066979
 20
3.378990588825532
 30
0.0
 10
9.530731686457118
 20
2.68960572275585
 30
0.0
 10
10.1420507913141
 20
2.144484495075407
 30
0.0
 10
10.42477035651605
 20
2.969544699127489
 30
0.0
 10
9.801016642181526
 20
2.953265341415252
 30
0.0
 10
9.61776196578896
 20
2.379200922763869
 30
0.0
 10
9.624902550448093
 20
1.629997093003867
 30
0.0
 10
9.976459898122444
 20
0.7118690884776602
 30
0.0
 10
8.773761033495694
 20
0.0506985757377362
 30
0.0
 10
8.277366006113311
 20
1.300485134542278
 30
0.0
 10
5.383731147241956
 20
0.7684867685930061
 30
0.0
 10
7.590153049888366
 20
0.1305309171943216
 30
0.0
 10
8.90625
 20
-0.25
 30
0.0
  0
LINE
  5
D3
330
1F
100
AcDbEntity
  8
LAYER1
 62
     7
100
AcDbLine
 10
-4.25
 20
7.65625
 30
0.0
 11
1.03125
 21
-0.4375
 31
0.0
  0
DIMENSION
  5
D4
330
1F
100
AcDbEntity
  8
DIMENSION
 62
     5
100
AcDbDimension
  2
*D7
 10
4.982421875000001
 20
-0.53125
 30
0.0
 11
4.982421875000001
 21
0.453125
 31
0.0
 70
   160
  3
ODADIMSTYLE0
100
AcDbAlignedDimension
 13
4.607421875000001
 23
1.4375
 33
0.0
 14
4.607421875000001
 24
-0.53125
 34
0.0
 50
270.0
100
AcDbRotatedDimension
1001
ACAD
1000
DSTYLE
1002
{
1070
   271
1070
     4
1070
    41
1040
0.125
1070
   140
1040
0.1666666716337204
1002
}
  0
DIMENSION
  5
E2
330
1F
100
AcDbEntity
  8
DIMENSION
 62
     5
100
AcDbDimension
  2
*D8
 10
-3.794270833333334
 20
5.4375
 30
0.0
 11
-3.794270833333334
 21
5.65625
 31
0.0
 70
   160
  3
ODADIMSTYLE0
100
AcDbAlignedDimension
 13
-4.169270833333334
 23
5.875
 33
0.0
 14
-4.169270833333334
 24
5.4375
 34
0.0
 50
270.0
100
AcDbRotatedDimension
1001
ACAD
1000
DSTYLE
1002
{
1070
   271
1070
     4
1070
    41
1040
0.125
1070
   140
1040
0.1666666716337204
1002
}
  0
DIMENSION
  5
F0
330
1F
100
AcDbEntity
  8
DIMENSION
 62
     5
100
AcDbDimension
  2
*D9
 10
-1.29296875
 20
5.875
 30
0.0
 11
-1.29296875
 21
7.03125
 31
0.0
 70
   160
  3
ODADIMSTYLE0
100
AcDbAlignedDimension
 13
-1.878255208333334
 23
8.1875
 33
0.0
 14
-1.66796875
 24
5.875
 34
0.0
 50
270.0
100
AcDbRotatedDimension
1001
ACAD
1000
DSTYLE
1002
{
1070
   271
1070
     4
1070
    41
1040
0.125
1070
   140
1040
0.1666666716337204
1002
}
  0
DIMENSION
  5
FE
330
1F
100
AcDbEntity
  8
DIMENSION
 62
     5
100
AcDbDimension
  2
*D10
 10
-0.3593750000000006
 20
1.4375
 30
0.0
 11
-0.359375
 21
4.8125
 31
0.0
 70
   160
  3
ODADIMSTYLE0
100
AcDbAlignedDimension
 13
-0.734375
 23
8.1875
 33
0.0
 14
-1.003906250000001
 24
1.4375
 34
0.0
 50
270.0
100
AcDbRotatedDimension
1001
ACAD
1000
DSTYLE
1002
{
1070
   271
1070
     4
1070
    41
1040
0.125
1070
   140
1040
0.1666666716337204
1002
}
  0
DIMENSION
  5
10C
330
1F
100
AcDbEntity
  8
DIMENSION
 62
     5
100
AcDbDimension
  2
*D11
 10
-2.734375
 20
1.8125
 30
0.0
 11
-3.71875
 21
1.8125
 31
0.0
 70
   160
  3
ODADIMSTYLE0
100
AcDbAlignedDimension
 13
-4.703125
 23
1.4375
 33
0.0
 14
-2.734375
 24
1.4375
 34
0.0
100
AcDbRotatedDimension
1001
ACAD
1000
DSTYLE
1002
{
1070
   271
1070
     4
1070
    41
1040
0.125
1070
   140
1040
0.1666666716337204
1002
}
  0
DIMENSION
  5
11A
330
1F
100
AcDbEntity
  8
DIMENSION
 62
     5
100
AcDbDimension
  2
*D12
 10
-0.421875
 20
3.4375
 30
0.0
 11
-3.1796875
 21
3.4375
 31
0.0
 70
   160
  3
ODADIMSTYLE0
100
AcDbAlignedDimension
 13
-5.9375
 23
3.0625
 33
0.0
 14
-0.421875
 24
3.0625
 34
0.0
100
AcDbRotatedDimension
1001
ACAD
1000
DSTYLE
1002
{
1070
   271
1070
     4
1070
    41
1040
0.125
1070
   140
1040
0.1666666716337204
1002
}
  0
DIMENSION
  5
128
330
1F
100
AcDbEntity
  8
DIMENSION
 62
     5
100
AcDbDimension
  2
*D13
 10
-2.734375
 20
7.1875
 30
0.0
 11
-3.609375
 21
7.1875
 31
0.0
 70
   160
  3
ODADIMSTYLE0
100
AcDbAlignedDimension
 13
-4.484375
 23
6.8125
 33
0.0
 14
-2.734375
 24
6.8125
 34
0.0
100
AcDbRotatedDimension
1001
ACAD
1000
DSTYLE
1002
{
1070
   271
1070
     4
1070
    41
1040
0.125
1070
   140
1040
0.1666666716337204
1002
}
  0
LINE
  5
136
330
1F
100
AcDbEntity
  8
LAYER1
 62
     7
100
AcDbLine
 10
-5.9375
 20
3.0625
 30
0.0
 11
-5.9375
 21
5.875
 31
0.0
  0
LINE
  5
137
330
1F
100
AcDbEntity
  8
LAYER1
 62
     7
100
AcDbLine
 10
-0.421875
 20
3.0625
 30
0.0
 11
-5.9375
 21
3.0625
 31
0.0
  0
LINE
  5
138
330
1F
100
AcDbEntity
  8
LAYER1
 62
     7
100
AcDbLine
 10
-0.421875
 20
5.875
 30
0.0
 11
-0.421875
 21
3.0625
 31
0.0
  0
LINE
  5
139
330
1F
100
AcDbEntity
  8
LAYER1
 62
     7
100
AcDbLine
 10
-5.9375
 20
5.875
 30
0.0
 11
-0.421875
 21
5.875
 31
0.0
  0
DIMENSION
  5
13A
330
1F
100
AcDbEntity
  8
DIMENSION
 62
     5
100
AcDbDimension
  2
*D14
 10
3.997395833333333
 20
1.4375
 30
0.0
 11
3.997395833333333
 21
3.4375
 31
0.0
 70
   160
  3
ODADIMSTYLE0
100
AcDbAlignedDimension
 13
3.622395833333333
 23
5.4375
 33
0.0
 14
3.622395833333333
 24
1.4375
 34
0.0
 50
270.0
100
AcDbRotatedDimension
1001
ACAD
1000
DSTYLE
1002
{
1070
   271
1070
     4
1070
    41
1040
0.125
1070
   140
1040
0.1666666716337204
1002
}
  0
DIMENSION
  5
148
330
1F
100
AcDbEntity
  8
DIMENSION
 62
     5
100
AcDbDimension
  2
*D15
 10
0.8763020833333333
 20
5.4375
 30
0.0
 11
0.8763020833333335
 21
6.8125
 31
0.0
 70
   160
  3
ODADIMSTYLE0
100
AcDbAlignedDimension
 13
0.5013020833333335
 23
8.1875
 33
0.0
 14
0.368489583333333
 24
5.4375
 34
0.0
 50
270.0
100
AcDbRotatedDimension
1001
ACAD
1000
DSTYLE
1002
{
1070
   271
1070
     4
1070
    41
1040
0.125
1070
   140
1040
0.1666666716337204
1002
}
  0
DIMENSION
  5
156
330
1F
100
AcDbEntity
  8
DIMENSION
 62
     5
100
AcDbDimension
  2
*D16
 10
3.265625
 20
0.9375
 30
0.0
 11
2.359375
 21
0.9375
 31
0.0
 70
   160
  3
ODADIMSTYLE0
100
AcDbAlignedDimension
 13
1.453125
 23
0.5625
 33
0.0
 14
3.265625
 24
0.5625
 34
0.0
100
AcDbRotatedDimension
1001
ACAD
1000
DSTYLE
1002
{
1070
   271
1070
     4
1070
    41
1040
0.125
1070
   140
1040
0.1666666716337204
1002
}
  0
DIMENSION
  5
164
330
1F
100
AcDbEntity
  8
DIMENSION
 62
     5
100
AcDbDimension
  2
*D17
 10
3.234375
 20
5.8125
 30
0.0
 11
2.25
 21
5.8125
 31
0.0
 70
   160
  3
ODADIMSTYLE0
100
AcDbAlignedDimension
 13
1.265625
 23
5.4375
 33
0.0
 14
3.234375
 24
5.4375
 34
0.0
100
AcDbRotatedDimension
1001
ACAD
1000
DSTYLE
1002
{
1070
   271
1070
     4
1070
    41
1040
0.125
1070
   140
1040
0.1666666716337204
1002
}
  0
LINE
  5
172
330
1F
100
AcDbEntity
  8
LAYER1
 62
     7
100
AcDbLine
 10
2.195235689590822
 20
7.451112182130124
 30
0.0
 11
0.5316057269499448
 21
5.437500000000001
 31
0.0
  0
LINE
  5
173
330
1F
100
AcDbEntity
  8
LAYER1
 62
     7
100
AcDbLine
 10
4.157978123386121
 20
6.749230261082515
 30
0.0
 11
1.006084376613879
 21
4.125769738917486
 31
0.0
  0
CIRCLE
  5
174
330
1F
100
AcDbEntity
  8
LAYER1
 62
     7
100
AcDbCircle
 10
2.582031249999999
 20
5.4375
 30
0.0
 40
2.050425523050054
  0
ENDSEC
  0
SECTION
  2
OBJECTS
  0
DICTIONARY
  5
C
330
0
100
AcDbDictionary
  3
ACAD_GROUP
350
D
  3
ACAD_LAYOUT
350
1A
  3
ACAD_MLEADERSTYLE
350
196
  3
ACAD_MLINESTYLE
350
17
  3
ACAD_PLOTSETTINGS
350
19
  3
ACAD_SCALELIST
350
A2
  3
ACAD_TABLESTYLE
350
195
  3
ACAD_VISUALSTYLE
350
2A
  3
ACDBHEADERROUNDTRIPXREC
350
175
  3
ACDBVARIABLEDICTIONARY
350
197
  0
DICTIONARY
  5
D
102
{ACAD_REACTORS
330
C
102
}
330
C
100
AcDbDictionary
  0
DICTIONARY
  5
1A
102
{ACAD_REACTORS
330
C
102
}
330
C
100
AcDbDictionary
  0
DICTIONARY
  5
196
102
{ACAD_REACTORS
330
C
102
}
330
C
100
AcDbDictionary
  0
DICTIONARY
  5
17
102
{ACAD_REACTORS
330
C
102
}
330
C
100
AcDbDictionary
  3
STANDARD
350
18
  0
DICTIONARY
  5
19
102
{ACAD_REACTORS
330
C
102
}
330
C
100
AcDbDictionary
  0
DICTIONARY
  5
A2
102
{ACAD_REACTORS
330
C
102
}
330
C
100
AcDbDictionary
  3
A0
350
A3
  3
A1
350
A4
  3
A2
350
A5
  3
A3
350
A6
  3
A4
350
A7
  3
A5
350
A8
  3
A6
350
A9
  3
A7
350
AA
  3
A8
350
AB
  3
A9
350
AC
  3
B0
350
AD
  3
B1
350
AE
  3
B2
350
AF
  3
B3
350
B0
  3
B4
350
B1
  3
B5
350
B2
  3
B6
350
B3
  3
B7
350
B4
  3
B8
350
B5
  3
B9
350
B6
  3
C0
350
B7
  3
C1
350
B8
  3
C2
350
B9
  3
C3
350
BA
  3
C4
350
BB
  3
C5
350
BC
  3
C6
350
BD
  3
C7
350
BE
  3
C8
350
BF
  3
C9
350
C0
  3
D0
350
C1
  3
D1
350
C2
  3
D2
350
C3
  0
DICTIONARY
  5
195
102
{ACAD_REACTORS
330
C
102
}
330
C
100
AcDbDictionary
  0
DICTIONARY
  5
2A
102
{ACAD_REACTORS
330
C
102
}
330
C
100
AcDbDictionary
  3
2DWIREFRAME
350
2F
  3
3D_HIDDEN
350
31
  3
3DWIREFRAME
350
30
  3
BASIC
350
32
  3
BRIGHTEN
350
36
  3
COLORCHANGE
350
3A
  3
CONCEPTUAL
350
34
  3
DIM
350
35
  3
FACEPATTERN
350
39
  3
FLAT
350
2B
  3
FLATWITHEDGES
350
2C
  3
GOURAUD
350
2D
  3
GOURAUDWITHEDGES
350
2E
  3
LINEPATTERN
350
38
  3
REALISTIC
350
33
  3
THICKEN
350
37
  0
DICTIONARY
  5
175
102
{ACAD_REACTORS
330
C
102
}
330
C
100
AcDbDictionary
  3
CEPSNTYPE
350
17E
  3
DIMSTYLEDATA
350
194
  3
FINGERPRINTGUID
350
17F
  3
HYPERLINKBASE
350
178
  3
INSUNITS
350
17D
  3
LAYOUTDICT
350
17A
  3
LWETCUNION
350
17C
  3
PLOTSETDICT
350
17B
  3
PSVPSCALE
350
181
  3
PUCSBASE
350
184
  3
PUCSORGBACK
350
18A
  3
PUCSORGBOTTOM
350
186
  3
PUCSORGFRONT
350
189
  3
PUCSORGLEFT
350
187
  3
PUCSORGRIGHT
350
188
  3
PUCSORGTOP
350
185
  3
PUCSORTHOREF
350
182
  3
PUCSORTHOVIEW
350
183
  3
STYLESHEET
350
179
  3
TSTACKALIGN
350
176
  3
TSTACKSIZE
350
177
  3
UCSBASE
350
18D
  3
UCSORGBACK
350
193
  3
UCSORGBOTTOM
350
18F
  3
UCSORGFRONT
350
192
  3
UCSORGLEFT
350
190
  3
UCSORGRIGHT
350
191
  3
UCSORGTOP
350
18E
  3
UCSORTHOREF
350
18B
  3
UCSORTHOVIEW
350
18C
  3
VERSIONGUID
350
180
  0
DICTIONARY
  5
197
102
{ACAD_REACTORS
330
C
102
}
330
C
100
AcDbDictionary
  3
CANNOSCALE
350
198
  0
MLINESTYLE
  5
18
102
{ACAD_REACTORS
330
17
102
}
330
17
100
AcDbMlineStyle
  2
Standard
 70
     0
  3

 62
   256
 51
90.0
 52
90.0
 71
     2
 49
0.5
 62
   256
  6
BYLAYER
 49
-0.5
 62
   256
  6
BYLAYER
  0
ACAD_PROXY_OBJECT
  5
A3
102
{ACAD_REACTORS
330
A2
102
}
330
A2
100
AcDbProxyObject
 90
      499
 91
      502
 93
       41
310
903313A31580
  0
ACAD_PROXY_OBJECT
  5
A4
102
{ACAD_REACTORS
330
A2
102
}
330
A2
100
AcDbProxyObject
 90
      499
 91
      502
 93
      105
310
903313A324000000000000004000
  0
ACAD_PROXY_OBJECT
  5
A5
102
{ACAD_REACTORS
330
A2
102
}
330
A2
100
AcDbProxyObject
 90
      499
 91
      502
 93
      105
310
903313A344000000000000104000
  0
ACAD_PROXY_OBJECT
  5
A6
102
{ACAD_REACTORS
330
A2
102
}
330
A2
100
AcDbProxyObject
 90
      499
 91
      502
 93
      105
310
903313A354000000000000144000
  0
ACAD_PROXY_OBJECT
  5
A7
102
{ACAD_REACTORS
330
A2
102
}
330
A2
100
AcDbProxyObject
 90
      499
 91
      502
 93
      105
310
903313A384000000000000204000
  0
ACAD_PROXY_OBJECT
  5
A8
102
{ACAD_REACTORS
330
A2
102
}
330
A2
100
AcDbProxyObject
 90
      499
 91
      502
 93
      113
310
904313A31304000000000000244000
  0
ACAD_PROXY_OBJECT
  5
A9
102
{ACAD_REACTORS
330
A2
102
}
330
A2
100
AcDbProxyObject
 90
      499
 91
      502
 93
      113
310
904313A31364000000000000304000
  0
ACAD_PROXY_OBJECT
  5
AA
102
{ACAD_REACTORS
330
A2
102
}
330
A2
100
AcDbProxyObject
 90
      499
 91
      502
 93
      113
310
904313A32304000000000000344000
  0
ACAD_PROXY_OBJECT
  5
AB
102
{ACAD_REACTORS
330
A2
102
}
330
A2
100
AcDbProxyObject
 90
      499
 91
      502
 93
      113
310
904313A333040000000000003E4000
  0
ACAD_PROXY_OBJECT
  5
AC
102
{ACAD_REACTORS
330
A2
102
}
330
A2
100
AcDbProxyObject
 90
      499
 91
      502
 93
      113
310
904313A34304000000000000444000
  0
ACAD_PROXY_OBJECT
  5
AD
102
{ACAD_REACTORS
330
A2
102
}
330
A2
100
AcDbProxyObject
 90
      499
 91
      502
 93
      113
310
904313A35304000000000000494000
  0
ACAD_PROXY_OBJECT
  5
AE
102
{ACAD_REACTORS
330
A2
102
}
330
A2
100
AcDbProxyObject
 90
      499
 91
      502
 93
      121
310
905313A3130304000000000000594000
  0
ACAD_PROXY_OBJECT
  5
AF
102
{ACAD_REACTORS
330
A2
102
}
330
A2
100
AcDbProxyObject
 90
      499
 91
      502
 93
      105
310
903323A310000000000000010100
  0
ACAD_PROXY_OBJECT
  5
B0
102
{ACAD_REACTORS
330
A2
102
}
330
A2
100
AcDbProxyObject
 90
      499
 91
      502
 93
      105
310
903343A310000000000000410100
  0
ACAD_PROXY_OBJECT
  5
B1
102
{ACAD_REACTORS
330
A2
102
}
330
A2
100
AcDbProxyObject
 90
      499
 91
      502
 93
      105
310
903383A310000000000000810100
  0
ACAD_PROXY_OBJECT
  5
B2
102
{ACAD_REACTORS
330
A2
102
}
330
A2
100
AcDbProxyObject
 90
      499
 91
      502
 93
      113
310
90431303A310000000000000910100
  0
ACAD_PROXY_OBJECT
  5
B3
102
{ACAD_REACTORS
330
A2
102
}
330
A2
100
AcDbProxyObject
 90
      499
 91
      502
 93
      121
310
9053130303A310000000000001650100
  0
ACAD_PROXY_OBJECT
  5
B4
102
{ACAD_REACTORS
330
A2
102
}
330
A2
100
AcDbProxyObject
 90
      499
 91
      502
 93
      257
310
90E312F31323822203D2031272D3022000000000000200FC000000000000284000
  0
ACAD_PROXY_OBJECT
  5
B5
102
{ACAD_REACTORS
330
A2
102
}
330
A2
100
AcDbProxyObject
 90
      499
 91
      502
 93
      249
310
90D312F363422203D2031272D3022000000000000240FC000000000000284000
  0
ACAD_PROXY_OBJECT
  5
B6
102
{ACAD_REACTORS
330
A2
102
}
330
A2
100
AcDbProxyObject
 90
      499
 91
      502
 93
      249
310
90D312F333222203D2031272D3022000000000000280FC000000000000284000
  0
ACAD_PROXY_OBJECT
  5
B7
102
{ACAD_REACTORS
330
A2
102
}
330
A2
100
AcDbProxyObject
 90
      499
 91
      502
 93
      249
310
90D312F313622203D2031272D30220000000000002C0FC000000000000284000
  0
ACAD_PROXY_OBJECT
  5
B8
102
{ACAD_REACTORS
330
A2
102
}
330
A2
100
AcDbProxyObject
 90
      499
 91
      502
 93
      249
310
90D332F333222203D2031272D30220000000000002E0FC000000000000284000
  0
ACAD_PROXY_OBJECT
  5
B9
102
{ACAD_REACTORS
330
A2
102
}
330
A2
100
AcDbProxyObject
 90
      499
 91
      502
 93
      241
310
90C312F3822203D2031272D3022000000000000300FC000000000000284000
  0
ACAD_PROXY_OBJECT
  5
BA
102
{ACAD_REACTORS
330
A2
102
}
330
A2
100
AcDbProxyObject
 90
      499
 91
      502
 93
      249
310
90D332F313622203D2031272D3022000000000000320FC000000000000284000
  0
ACAD_PROXY_OBJECT
  5
BB
102
{ACAD_REACTORS
330
A2
102
}
330
A2
100
AcDbProxyObject
 90
      499
 91
      502
 93
      241
310
90C312F3422203D2031272D3022000000000000340FC000000000000284000
  0
ACAD_PROXY_OBJECT
  5
BC
102
{ACAD_REACTORS
330
A2
102
}
330
A2
100
AcDbProxyObject
 90
      499
 91
      502
 93
      241
310
90C332F3822203D2031272D3022000000000000360FC000000000000284000
  0
ACAD_PROXY_OBJECT
  5
BD
102
{ACAD_REACTORS
330
A2
102
}
330
A2
100
AcDbProxyObject
 90
      499
 91
      502
 93
      241
310
90C312F3222203D2031272D3022000000000000380FC000000000000284000
  0
ACAD_PROXY_OBJECT
  5
BE
102
{ACAD_REACTORS
330
A2
102
}
330
A2
100
AcDbProxyObject
 90
      499
 91
      502
 93
      241
310
90C332F3422203D2031272D30220000000000003A0FC000000000000284000
  0
ACAD_PROXY_OBJECT
  5
BF
102
{ACAD_REACTORS
330
A2
102
}
330
A2
100
AcDbProxyObject
 90
      499
 91
      502
 93
      161
310
90A3122203D2031272D30224000000000000284000
  0
ACAD_PROXY_OBJECT
  5
C0
102
{ACAD_REACTORS
330
A2
102
}
330
A2
100
AcDbProxyObject
 90
      499
 91
      502
 93
      257
310
90E312D312F3222203D2031272D30220000000000003E0FC000000000000284000
  0
ACAD_PROXY_OBJECT
  5
C1
102
{ACAD_REACTORS
330
A2
102
}
330
A2
100
AcDbProxyObject
 90
      499
 91
      502
 93
      225
310
90A3322203D2031272D302200000000000002100000000000000284000
  0
ACAD_PROXY_OBJECT
  5
C2
102
{ACAD_REACTORS
330
A2
102
}
330
A2
100
AcDbProxyObject
 90
      499
 91
      502
 93
      225
310
90A3622203D2031272D302200000000000006100000000000000284000
  0
ACAD_PROXY_OBJECT
  5
C3
102
{ACAD_REACTORS
330
A2
102
}
330
A2
100
AcDbProxyObject
 90
      499
 91
      502
 93
      249
310
90D31272D3022203D2031272D30220000000000000A100000000000000284000
  0
VISUALSTYLE
  5
2F
102
{ACAD_REACTORS
330
2A
102
}
330
2A
100
AcDbVisualStyle
  2
2dWireframe
 70
     4
 71
     0
 72
     2
 73
     0
 90
        0
 40
-0.6
 41
-30.0
 62
     5
 63
     7
 74
     1
 91
        4
 64
     7
 65
   257
 75
     1
175
     1
 42
1.0
 92
        0
 66
   257
 43
1.0
 76
     1
 77
     6
 78
     2
 67
     7
 79
     5
170
     0
171
     0
290
     0
174
     0
 93
        1
 44
0.0
173
     0
291
     0
 45
0.0
1001
ACAD
1000
AcDbSavedByObjectVersion
1070
     0
  0
VISUALSTYLE
  5
31
102
{ACAD_REACTORS
330
2A
102
}
330
2A
100
AcDbVisualStyle
  2
3D Hidden
 70
     6
 71
     1
 72
     2
 73
     2
 90
        0
 40
-0.6
 41
-30.0
 62
     5
 63
     7
 74
     2
 91
        2
 64
     7
 65
   257
 75
     2
175
     1
 42
40.0
 92
        0
 66
   257
 43
1.0
 76
     1
 77
     6
 78
     2
 67
     7
 79
     3
170
     0
171
     0
290
     0
174
     0
 93
        1
 44
0.0
173
     0
291
     0
 45
0.0
1001
ACAD
1000
AcDbSavedByObjectVersion
1070
     0
  0
VISUALSTYLE
  5
30
102
{ACAD_REACTORS
330
2A
102
}
330
2A
100
AcDbVisualStyle
  2
3dWireframe
 70
     5
 71
     0
 72
     2
 73
     0
 90
        0
 40
-0.6
 41
-30.0
 62
     5
 63
     7
 74
     1
 91
        4
 64
     7
 65
   257
 75
     1
175
     1
 42
1.0
 92
        0
 66
   257
 43
1.0
 76
     1
 77
     6
 78
     2
 67
     7
 79
     5
170
     0
171
     0
290
     0
174
     0
 93
        1
 44
0.0
173
     0
291
     0
 45
0.0
1001
ACAD
1000
AcDbSavedByObjectVersion
1070
     0
  0
VISUALSTYLE
  5
32
102
{ACAD_REACTORS
330
2A
102
}
330
2A
100
AcDbVisualStyle
  2
Basic
 70
     7
 71
     1
 72
     0
 73
     1
 90
        0
 40
-0.6
 41
-30.0
 62
     5
 63
     7
 74
     0
 91
        4
 64
     7
 65
   257
 75
     1
175
     1
 42
1.0
 92
        8
 66
     7
 43
1.0
 76
     1
 77
     6
 78
     2
 67
     7
 79
     5
170
     0
171
     0
290
     0
174
     0
 93
        1
 44
0.0
173
     0
291
     1
 45
0.0
1001
ACAD
1000
AcDbSavedByObjectVersion
1070
     0
  0
VISUALSTYLE
  5
36
102
{ACAD_REACTORS
330
2A
102
}
330
2A
100
AcDbVisualStyle
  2
Brighten
 70
    12
 71
     2
 72
     2
 73
     0
 90
        0
 40
-0.6
 41
-30.0
 62
     5
 63
     7
 74
     1
 91
        4
 64
     7
 65
   257
 75
     1
175
     1
 42
1.0
 92
        8
 66
     7
 43
1.0
 76
     1
 77
     6
 78
     2
 67
     7
 79
     5
170
     0
171
     0
290
     0
174
     0
 93
        1
 44
50.0
173
     0
291
     1
 45
0.0
1001
ACAD
1000
AcDbSavedByObjectVersion
1070
     0
  0
VISUALSTYLE
  5
3A
102
{ACAD_REACTORS
330
2A
102
}
330
2A
100
AcDbVisualStyle
  2
ColorChange
 70
    16
 71
     2
 72
     2
 73
     3
 90
        0
 40
-0.6
 41
-30.0
 62
     5
 63
     8
 74
     1
 91
        4
 64
     7
 65
   257
 75
     1
175
     1
 42
1.0
 92
        8
 66
     8
 43
1.0
 76
     1
 77
     6
 78
     2
 67
     7
 79
     5
170
     0
171
     0
290
     0
174
     0
 93
        1
 44
0.0
173
     0
291
     1
 45
0.0
1001
ACAD
1000
AcDbSavedByObjectVersion
1070
     0
  0
VISUALSTYLE
  5
34
102
{ACAD_REACTORS
330
2A
102
}
330
2A
100
AcDbVisualStyle
  2
Conceptual
 70
     9
 71
     3
 72
     2
 73
     0
 90
        0
 40
-0.6
 41
-30.0
 62
     5
 63
     7
 74
     2
 91
        2
 64
     7
 65
   257
 75
     1
175
     1
 42
40.0
 92
        8
 66
     7
 43
1.0
 76
     1
 77
     6
 78
     2
 67
     7
 79
     3
170
     0
171
     0
290
     0
174
     0
 93
        1
 44
0.0
173
     0
291
     0
 45
0.0
1001
ACAD
1000
AcDbSavedByObjectVersion
1070
     0
  0
VISUALSTYLE
  5
35
102
{ACAD_REACTORS
330
2A
102
}
330
2A
100
AcDbVisualStyle
  2
Dim
 70
    11
 71
     2
 72
     2
 73
     0
 90
        0
 40
-0.6
 41
-30.0
 62
     5
 63
     7
 74
     1
 91
        4
 64
     7
 65
   257
 75
     1
175
     1
 42
1.0
 92
        8
 66
     7
 43
1.0
 76
     1
 77
     6
 78
     2
 67
     7
 79
     5
170
     0
171
     0
290
     0
174
     0
 93
        1
 44
-50.0
173
     0
291
     1
 45
0.0
1001
ACAD
1000
AcDbSavedByObjectVersion
1070
     0
  0
VISUALSTYLE
  5
39
102
{ACAD_REACTORS
330
2A
102
}
330
2A
100
AcDbVisualStyle
  2
Facepattern
 70
    15
 71
     2
 72
     2
 73
     0
 90
        0
 40
-0.6
 41
-30.0
 62
     5
 63
     7
 74
     1
 91
        4
 64
     7
 65
   257
 75
     1
175
     1
 42
1.0
 92
        8
 66
     7
 43
1.0
 76
     1
 77
     6
 78
     2
 67
     7
 79
     5
170
     0
171
     0
290
     0
174
     0
 93
        1
 44
0.0
173
     0
291
     1
 45
0.0
1001
ACAD
1000
AcDbSavedByObjectVersion
1070
     0
  0
VISUALSTYLE
  5
2B
102
{ACAD_REACTORS
330
2A
102
}
330
2A
100
AcDbVisualStyle
  2
Flat
 70
     0
 71
     2
 72
     1
 73
     1
 90
        2
 40
-0.6
 41
30.0
 62
     5
 63
     7
 74
     0
 91
        4
 64
     7
 65
   257
 75
     1
175
     1
 42
1.0
 92
        8
 66
     7
 43
1.0
 76
     1
 77
     6
 78
     2
 67
     7
 79
     5
170
     0
171
     0
290
     0
174
     0
 93
       13
 44
0.0
173
     0
291
     1
 45
0.0
1001
ACAD
1000
AcDbSavedByObjectVersion
1070
     0
  0
VISUALSTYLE
  5
2C
102
{ACAD_REACTORS
330
2A
102
}
330
2A
100
AcDbVisualStyle
  2
FlatWithEdges
 70
     1
 71
     2
 72
     1
 73
     1
 90
        2
 40
-0.6
 41
30.0
 62
     5
 63
     7
 74
     1
 91
        4
 64
     7
 65
   257
 75
     1
175
     1
 42
1.0
 92
        0
 66
   257
 43
1.0
 76
     1
 77
     6
 78
     2
 67
     7
 79
     5
170
     0
171
     0
290
     0
174
     0
 93
       13
 44
0.0
173
     0
291
     1
 45
0.0
1001
ACAD
1000
AcDbSavedByObjectVersion
1070
     0
  0
VISUALSTYLE
  5
2D
102
{ACAD_REACTORS
330
2A
102
}
330
2A
100
AcDbVisualStyle
  2
Gouraud
 70
     2
 71
     2
 72
     2
 73
     1
 90
        2
 40
-0.6
 41
30.0
 62
     5
 63
     7
 74
     0
 91
        4
 64
     7
 65
   257
 75
     1
175
     1
 42
1.0
 92
        0
 66
     7
 43
1.0
 76
     1
 77
     6
 78
     2
 67
     7
 79
     5
170
     0
171
     0
290
     0
174
     0
 93
       13
 44
0.0
173
     0
291
     1
 45
0.0
1001
ACAD
1000
AcDbSavedByObjectVersion
1070
     0
  0
VISUALSTYLE
  5
2E
102
{ACAD_REACTORS
330
2A
102
}
330
2A
100
AcDbVisualStyle
  2
GouraudWithEdges
 70
     3
 71
     2
 72
     2
 73
     1
 90
        2
 40
-0.6
 41
30.0
 62
     5
 63
     7
 74
     1
 91
        4
 64
     7
 65
   257
 75
     1
175
     1
 42
1.0
 92
        0
 66
   257
 43
1.0
 76
     1
 77
     6
 78
     2
 67
     7
 79
     5
170
     0
171
     0
290
     0
174
     0
 93
       13
 44
0.0
173
     0
291
     1
 45
0.0
1001
ACAD
1000
AcDbSavedByObjectVersion
1070
     0
  0
VISUALSTYLE
  5
38
102
{ACAD_REACTORS
330
2A
102
}
330
2A
100
AcDbVisualStyle
  2
Linepattern
 70
    14
 71
     2
 72
     2
 73
     0
 90
        0
 40
-0.6
 41
-30.0
 62
     5
 63
     7
 74
     1
 91
        4
 64
     7
 65
   257
 75
     7
175
     7
 42
1.0
 92
        8
 66
     7
 43
1.0
 76
     1
 77
     6
 78
     2
 67
     7
 79
     5
170
     0
171
     0
290
     0
174
     0
 93
        1
 44
0.0
173
     0
291
     1
 45
0.0
1001
ACAD
1000
AcDbSavedByObjectVersion
1070
     0
  0
VISUALSTYLE
  5
33
102
{ACAD_REACTORS
330
2A
102
}
330
2A
100
AcDbVisualStyle
  2
Realistic
 70
     8
 71
     2
 72
     2
 73
     0
 90
        0
 40
-0.6
 41
-30.0
 62
     5
 63
     7
 74
     1
 91
        0
 64
     7
 65
   257
 75
     1
175
     1
 42
1.0
 92
        8
 66
     8
 43
1.0
 76
     1
 77
     6
 78
     2
 67
     7
 79
     5
170
     0
171
     0
290
     0
174
     0
 93
       13
 44
0.0
173
     0
291
     0
 45
0.0
1001
ACAD
1000
AcDbSavedByObjectVersion
1070
     0
  0
VISUALSTYLE
  5
37
102
{ACAD_REACTORS
330
2A
102
}
330
2A
100
AcDbVisualStyle
  2
Thicken
 70
    13
 71
     2
 72
     2
 73
     0
 90
        0
 40
-0.6
 41
-30.0
 62
     5
 63
     7
 74
     1
 91
        4
 64
     7
 65
   257
 75
     1
175
     1
 42
1.0
 92
       12
 66
     7
 43
1.0
 76
     1
 77
     6
 78
     2
 67
     7
 79
     5
170
     0
171
     0
290
     0
174
     0
 93
        1
 44
0.0
173
     0
291
     1
 45
0.0
1001
ACAD
1000
AcDbSavedByObjectVersion
1070
     0
  0
XRECORD
  5
17E
102
{ACAD_REACTORS
330
175
102
}
330
175
100
AcDbXrecord
 90
        0
  0
XRECORD
  5
194
102
{ACAD_REACTORS
330
175
102
}
330
175
100
AcDbXrecord
1000
DSTYLE
1002
{
1070
   340
340
11
1002
}
  0
XRECORD
  5
17F
102
{ACAD_REACTORS
330
175
102
}
330
175
100
AcDbXrecord
  1
{A091DFAE-549F-413C-87D0-51AAD66CC08B}
  0
XRECORD
  5
178
102
{ACAD_REACTORS
330
175
102
}
330
175
100
AcDbXrecord
  1

  0
XRECORD
  5
17D
102
{ACAD_REACTORS
330
175
102
}
330
175
100
AcDbXrecord
 90
        1
  0
XRECORD
  5
17A
102
{ACAD_REACTORS
330
175
102
}
330
175
100
AcDbXrecord
340
1A
  0
XRECORD
  5
17C
102
{ACAD_REACTORS
330
175
102
}
330
175
100
AcDbXrecord
 90
    10781
  0
XRECORD
  5
17B
102
{ACAD_REACTORS
330
175
102
}
330
175
100
AcDbXrecord
340
19
  0
XRECORD
  5
181
102
{ACAD_REACTORS
330
175
102
}
330
175
100
AcDbXrecord
 40
0.0
  0
XRECORD
  5
184
102
{ACAD_REACTORS
330
175
102
}
330
175
100
AcDbXrecord
340
0
  0
XRECORD
  5
18A
102
{ACAD_REACTORS
330
175
102
}
330
175
100
AcDbXrecord
 10
0.0
 20
0.0
 30
0.0
  0
XRECORD
  5
186
102
{ACAD_REACTORS
330
175
102
}
330
175
100
AcDbXrecord
 10
0.0
 20
0.0
 30
0.0
  0
XRECORD
  5
189
102
{ACAD_REACTORS
330
175
102
}
330
175
100
AcDbXrecord
 10
0.0
 20
0.0
 30
0.0
  0
XRECORD
  5
187
102
{ACAD_REACTORS
330
175
102
}
330
175
100
AcDbXrecord
 10
0.0
 20
0.0
 30
0.0
  0
XRECORD
  5
188
102
{ACAD_REACTORS
330
175
102
}
330
175
100
AcDbXrecord
 10
0.0
 20
0.0
 30
0.0
  0
XRECORD
  5
185
102
{ACAD_REACTORS
330
175
102
}
330
175
100
AcDbXrecord
 10
0.0
 20
0.0
 30
0.0
  0
XRECORD
  5
182
102
{ACAD_REACTORS
330
175
102
}
330
175
100
AcDbXrecord
340
0
  0
XRECORD
  5
183
102
{ACAD_REACTORS
330
175
102
}
330
175
100
AcDbXrecord
 70
     0
  0
XRECORD
  5
179
102
{ACAD_REACTORS
330
175
102
}
330
175
100
AcDbXrecord
  1

  0
XRECORD
  5
176
102
{ACAD_REACTORS
330
175
102
}
330
175
100
AcDbXrecord
 90
        1
  0
XRECORD
  5
177
102
{ACAD_REACTORS
330
175
102
}
330
175
100
AcDbXrecord
 90
       70
  0
XRECORD
  5
18D
102
{ACAD_REACTORS
330
175
102
}
330
175
100
AcDbXrecord
340
0
  0
XRECORD
  5
193
102
{ACAD_REACTORS
330
175
102
}
330
175
100
AcDbXrecord
 10
0.0
 20
0.0
 30
0.0
  0
XRECORD
  5
18F
102
{ACAD_REACTORS
330
175
102
}
330
175
100
AcDbXrecord
 10
0.0
 20
0.0
 30
0.0
  0
XRECORD
  5
192
102
{ACAD_REACTORS
330
175
102
}
330
175
100
AcDbXrecord
 10
0.0
 20
0.0
 30
0.0
  0
XRECORD
  5
190
102
{ACAD_REACTORS
330
175
102
}
330
175
100
AcDbXrecord
 10
0.0
 20
0.0
 30
0.0
  0
XRECORD
  5
191
102
{ACAD_REACTORS
330
175
102
}
330
175
100
AcDbXrecord
 10
0.0
 20
0.0
 30
0.0
  0
XRECORD
  5
18E
102
{ACAD_REACTORS
330
175
102
}
330
175
100
AcDbXrecord
 10
0.0
 20
0.0
 30
0.0
  0
XRECORD
  5
18B
102
{ACAD_REACTORS
330
175
102
}
330
175
100
AcDbXrecord
340
0
  0
XRECORD
  5
18C
102
{ACAD_REACTORS
330
175
102
}
330
175
100
AcDbXrecord
 70
     0
  0
XRECORD
  5
180
102
{ACAD_REACTORS
330
175
102
}
330
175
100
AcDbXrecord
  1
{FAEB1C32-E019-11D5-929B-00C0DF256EC4}
  0
DICTIONARYVAR
  5
198
102
{ACAD_REACTORS
330
197
102
}
330
197
100
DictionaryVariables
280
     0
  1
1:1
  0
ENDSEC
  0
EOF
