  0
SECTION
  2
HEADER
  9
$ACADVER
  1
AC1014
  9
$ACADMAINTVER
 70
     9
  9
$DWGCODEPAGE
  3
ANSI_1252
  9
$INSBASE
 10
0.0
 20
0.0
 30
0.0
  9
$EXTMIN
 10
1.000000000000000E+20
 20
1.000000000000000E+20
 30
1.000000000000000E+20
  9
$EXTMAX
 10
-1.000000000000000E+20
 20
-1.000000000000000E+20
 30
-1.000000000000000E+20
  9
$LIMMIN
 10
0.0
 20
0.0
  9
$LIMMAX
 10
12.0
 20
9.0
  9
$ORTHOMODE
 70
     0
  9
$REGENMODE
 70
     1
  9
$FILLMODE
 70
     1
  9
$QTEXTMODE
 70
     0
  9
$MIRRTEXT
 70
     1
  9
$DRAGMODE
 70
     2
  9
$LTSCALE
 40
1.0
  9
$OSMODE
 70
    37
  9
$ATTMODE
 70
     1
  9
$TEXTSIZE
 40
0.2
  9
$TRACEWID
 40
0.05
  9
$TEXTSTYLE
  7
STANDARD
  9
$CLAYER
  8
0
  9
$CELTYPE
  6
BYLAYER
  9
$CECOLOR
 62
   256
  9
$CELTSCALE
 40
1.0
  9
$DELOBJ
 70
     1
  9
$DISPSILH
 70
     0
  9
$DIMSCALE
 40
1.0
  9
$DIMASZ
 40
0.18
  9
$DIMEXO
 40
0.0625
  9
$DIMDLI
 40
0.38
  9
$DIMRND
 40
0.0
  9
$DIMDLE
 40
0.0
  9
$DIMEXE
 40
0.18
  9
$DIMTP
 40
0.0
  9
$DIMTM
 40
0.0
  9
$DIMTXT
 40
0.18
  9
$DIMCEN
 40
0.09
  9
$DIMTSZ
 40
0.0
  9
$DIMTOL
 70
     0
  9
$DIMLIM
 70
     0
  9
$DIMTIH
 70
     1
  9
$DIMTOH
 70
     1
  9
$DIMSE1
 70
     0
  9
$DIMSE2
 70
     0
  9
$DIMTAD
 70
     0
  9
$DIMZIN
 70
     0
  9
$DIMBLK
  1

  9
$DIMASO
 70
     1
  9
$DIMSHO
 70
     1
  9
$DIMPOST
  1

  9
$DIMAPOST
  1

  9
$DIMALT
 70
     0
  9
$DIMALTD
 70
     2
  9
$DIMALTF
 40
25.4
  9
$DIMLFAC
 40
1.0
  9
$DIMTOFL
 70
     0
  9
$DIMTVP
 40
0.0
  9
$DIMTIX
 70
     0
  9
$DIMSOXD
 70
     0
  9
$DIMSAH
 70
     0
  9
$DIMBLK1
  1

  9
$DIMBLK2
  1

  9
$DIMSTYLE
  2
STANDARD
  9
$DIMCLRD
 70
     0
  9
$DIMCLRE
 70
     0
  9
$DIMCLRT
 70
     0
  9
$DIMTFAC
 40
1.0
  9
$DIMGAP
 40
0.09
  9
$DIMJUST
 70
     0
  9
$DIMSD1
 70
     0
  9
$DIMSD2
 70
     0
  9
$DIMTOLJ
 70
     1
  9
$DIMTZIN
 70
     0
  9
$DIMALTZ
 70
     0
  9
$DIMALTTZ
 70
     0
  9
$DIMFIT
 70
     3
  9
$DIMUPT
 70
     0
  9
$DIMUNIT
 70
     2
  9
$DIMDEC
 70
     4
  9
$DIMTDEC
 70
     4
  9
$DIMALTU
 70
     2
  9
$DIMALTTD
 70
     2
  9
$DIMTXSTY
  7
STANDARD
  9
$DIMAUNIT
 70
     0
  9
$LUNITS
 70
     2
  9
$LUPREC
 70
     4
  9
$SKETCHINC
 40
0.1
  9
$FILLETRAD
 40
0.5
  9
$AUNITS
 70
     0
  9
$AUPREC
 70
     0
  9
$MENU
  1
.
  9
$ELEVATION
 40
0.0
  9
$PELEVATION
 40
0.0
  9
$THICKNESS
 40
0.0
  9
$LIMCHECK
 70
     0
  9
$CHAMFERA
 40
0.5
  9
$CHAMFERB
 40
0.5
  9
$CHAMFERC
 40
1.0
  9
$CHAMFERD
 40
0.0
  9
$SKPOLY
 70
     0
  9
$TDCREATE
 40
2458323.664048299
  9
$TDUPDATE
 40
2458323.66404831
  9
$TDINDWG
 40
0.0000000116
  9
$TDUSRTIMER
 40
0.0000000116
  9
$USRTIMER
 70
     1
  9
$ANGBASE
 50
0.0
  9
$ANGDIR
 70
     0
  9
$PDMODE
 70
     0
  9
$PDSIZE
 40
0.0
  9
$PLINEWID
 40
0.0
  9
$COORDS
 70
     1
  9
$SPLFRAME
 70
     0
  9
$SPLINETYPE
 70
     6
  9
$SPLINESEGS
 70
     8
  9
$ATTDIA
 70
     0
  9
$ATTREQ
 70
     1
  9
$HANDLING
 70
     1
  9
$HANDSEED
  5
181
  9
$SURFTAB1
 70
     6
  9
$SURFTAB2
 70
     6
  9
$SURFTYPE
 70
     6
  9
$SURFU
 70
     6
  9
$SURFV
 70
     6
  9
$UCSNAME
  2

  9
$UCSORG
 10
0.0
 20
0.0
 30
0.0
  9
$UCSXDIR
 10
1.0
 20
0.0
 30
0.0
  9
$UCSYDIR
 10
0.0
 20
1.0
 30
0.0
  9
$PUCSNAME
  2

  9
$PUCSORG
 10
0.0
 20
0.0
 30
0.0
  9
$PUCSXDIR
 10
1.0
 20
0.0
 30
0.0
  9
$PUCSYDIR
 10
0.0
 20
1.0
 30
0.0
  9
$USERI1
 70
     0
  9
$USERI2
 70
     0
  9
$USERI3
 70
     0
  9
$USERI4
 70
     0
  9
$USERI5
 70
     0
  9
$USERR1
 40
0.0
  9
$USERR2
 40
0.0
  9
$USERR3
 40
0.0
  9
$USERR4
 40
0.0
  9
$USERR5
 40
0.0
  9
$WORLDVIEW
 70
     1
  9
$SHADEDGE
 70
     3
  9
$SHADEDIF
 70
    70
  9
$TILEMODE
 70
     1
  9
$MAXACTVP
 70
    64
  9
$PINSBASE
 10
0.0
 20
0.0
 30
0.0
  9
$PLIMCHECK
 70
     0
  9
$PEXTMIN
 10
1.000000000000000E+20
 20
1.000000000000000E+20
 30
1.000000000000000E+20
  9
$PEXTMAX
 10
-1.000000000000000E+20
 20
-1.000000000000000E+20
 30
-1.000000000000000E+20
  9
$PLIMMIN
 10
0.0
 20
0.0
  9
$PLIMMAX
 10
12.0
 20
9.0
  9
$UNITMODE
 70
     0
  9
$VISRETAIN
 70
     1
  9
$PLINEGEN
 70
     0
  9
$PSLTSCALE
 70
     1
  9
$TREEDEPTH
 70
  3020
  9
$PICKSTYLE
 70
     1
  9
$CMLSTYLE
  2
STANDARD
  9
$CMLJUST
 70
     0
  9
$CMLSCALE
 40
1.0
  9
$PROXYGRAPHICS
 70
     1
  9
$MEASUREMENT
 70
     0
  0
ENDSEC
  0
SECTION
  2
CLASSES
  0
CLASS
  1
ACDBDICTIONARYWDFLT
  2
AcDbDictionaryWithDefault
  3
ObjectDBX Classes
 90
        0
280
     0
281
     0
  0
CLASS
  1
VISUALSTYLE
  2
AcDbVisualStyle
  3
ObjectDBX Classes
 90
     4095
280
     0
281
     0
  0
CLASS
  1
SCALE
  2
AcDbScale
  3
ObjectDBX Classes
 90
     1153
280
     0
281
     0
  0
CLASS
  1
DICTIONARYVAR
  2
AcDbDictionaryVar
  3
ObjectDBX Classes
 90
        0
280
     0
281
     0
  0
CLASS
  1
XRECORD
  2
AcDbXrecord
  3
AutoCAD 2000
 90
        0
280
     0
281
     0
  0
CLASS
  1
LWPOLYLINE
  2
AcDbPolyline
  3
AutoCAD 2000
 90
        0
280
     0
281
     1
  0
CLASS
  1
HATCH
  2
AcDbHatch
  3
AutoCAD 2000
 90
        0
280
     0
281
     1
  0
CLASS
  1
ACDBPLACEHOLDER
  2
AcDbPlaceHolder
  3
ObjectDBX Classes
 90
        0
280
     0
281
     0
  0
CLASS
  1
LAYOUT
  2
AcDbLayout
  3
ObjectDBX Classes
 90
        0
280
     0
281
     0
  0
ENDSEC
  0
SECTION
  2
TABLES
  0
TABLE
  2
VPORT
  5
8
330
0
100
AcDbSymbolTable
 70
     1
  0
VPORT
  5
29
330
8
100
AcDbSymbolTableRecord
100
AcDbViewportTableRecord
  2
*ACTIVE
 70
     0
 10
0.0
 20
0.0
 11
1.0
 21
1.0
 12
10.42990654205607
 22
4.5
 13
0.0
 23
0.0
 14
0.5
 24
0.5
 15
0.5
 25
0.5
 16
0.0
 26
0.0
 36
1.0
 17
0.0
 27
0.0
 37
0.0
 40
9.0
 41
1.972972972850329
 42
50.0
 43
0.0
 44
0.0
 50
0.0
 51
0.0
 71
     0
 72
   100
 73
     1
 74
     3
 75
     0
 76
     0
 77
     0
 78
     0
  0
ENDTAB
  0
TABLE
  2
LTYPE
  5
5
330
0
100
AcDbSymbolTable
 70
    11
  0
LTYPE
  5
14
330
5
100
AcDbSymbolTableRecord
100
AcDbLinetypeTableRecord
  2
BYBLOCK
 70
     0
  3

 72
    65
 73
     0
 40
0.0
  0
LTYPE
  5
15
330
5
100
AcDbSymbolTableRecord
100
AcDbLinetypeTableRecord
  2
BYLAYER
 70
     0
  3

 72
    65
 73
     0
 40
0.0
  0
LTYPE
  5
16
330
5
100
AcDbSymbolTableRecord
100
AcDbLinetypeTableRecord
  2
CONTINUOUS
 70
     0
  3
Solid line
 72
    65
 73
     0
 40
0.0
  0
LTYPE
  5
60
330
5
100
AcDbSymbolTableRecord
100
AcDbLinetypeTableRecord
  2
STITCH_G
 70
     0
  3
Graphite's line style                   
 72
    65
 73
     8
 40
25.18000000715256
 49
1.0
 74
     0
 49
-0.0450000017881393
 74
     0
 49
8.0
 74
     0
 49
-0.0450000017881393
 74
     0
 49
8.0
 74
     0
 49
-0.0450000017881393
 74
     0
 49
8.0
 74
     0
 49
-0.0450000017881393
 74
     0
  0
LTYPE
  5
61
330
5
100
AcDbSymbolTableRecord
100
AcDbLinetypeTableRecord
  2
CUTTING_G
 70
     0
  3
Graphite's line style                   
 72
    65
 73
    12
 40
52.27000001072884
 49
2.0
 74
     0
 49
-0.0450000017881393
 74
     0
 49
10.0
 74
     0
 49
-0.0450000017881393
 74
     0
 49
10.0
 74
     0
 49
-0.0450000017881393
 74
     0
 49
10.0
 74
     0
 49
-0.0450000017881393
 74
     0
 49
10.0
 74
     0
 49
-0.0450000017881393
 74
     0
 49
10.0
 74
     0
 49
-0.0450000017881393
 74
     0
  0
LTYPE
  5
62
330
5
100
AcDbSymbolTableRecord
100
AcDbLinetypeTableRecord
  2
DIVIDE_G
 70
     0
  3
Graphite's line style                   
 72
    65
 73
     4
 40
0.75
 49
0.0
 74
     0
 49
-0.375
 74
     0
 49
0.375
 74
     0
 49
0.0
 74
     0
  0
LTYPE
  5
63
330
5
100
AcDbSymbolTableRecord
100
AcDbLinetypeTableRecord
  2
BORDER_G
 70
     0
  3
Graphite's line style                   
 72
    65
 73
     4
 40
0.5
 49
0.0
 74
     0
 49
-0.25
 74
     0
 49
0.25
 74
     0
 49
0.0
 74
     0
  0
LTYPE
  5
64
330
5
100
AcDbSymbolTableRecord
100
AcDbLinetypeTableRecord
  2
DASHDOT_G
 70
     0
  3
Graphite's line style                   
 72
    65
 73
     4
 40
0.25
 49
0.0
 74
     0
 49
-0.125
 74
     0
 49
0.125
 74
     0
 49
0.0
 74
     0
  0
LTYPE
  5
65
330
5
100
AcDbSymbolTableRecord
100
AcDbLinetypeTableRecord
  2
PHANTOM_G
 70
     0
  3
Graphite's line style                   
 72
    65
 73
     6
 40
0.9674999937415123
 49
0.5
 74
     0
 49
-0.0724999979138374
 74
     0
 49
0.125
 74
     0
 49
-0.0724999979138374
 74
     0
 49
0.125
 74
     0
 49
-0.0724999979138374
 74
     0
  0
LTYPE
  5
66
330
5
100
AcDbSymbolTableRecord
100
AcDbLinetypeTableRecord
  2
HIDDEN_G
 70
     0
  3
Graphite's line style                   
 72
    65
 73
     2
 40
0.1974999979138374
 49
0.125
 74
     0
 49
-0.0724999979138374
 74
     0
  0
LTYPE
  5
67
330
5
100
AcDbSymbolTableRecord
100
AcDbLinetypeTableRecord
  2
DASHED_G
 70
     0
  3
Graphite's line style                   
 72
    65
 73
     2
 40
0.375
 49
0.25
 74
     0
 49
-0.125
 74
     0
  0
LTYPE
  5
68
330
5
100
AcDbSymbolTableRecord
100
AcDbLinetypeTableRecord
  2
CENTER_G
 70
     0
  3
Graphite's line style                   
 72
    65
 73
     2
 40
0.5724999979138374
 49
0.5
 74
     0
 49
-0.0724999979138374
 74
     0
  0
LTYPE
  5
69
330
5
100
AcDbSymbolTableRecord
100
AcDbLinetypeTableRecord
  2
DOTTED_G
 70
     0
  3

 72
    65
 73
     2
 40
0.1001
 49
0.0001
 74
     0
 49
-0.1
 74
     2
 75
     0
340
0
 46
0.0
 50
0.0
 44
0.0
 45
0.0
  9
.
  0
ENDTAB
  0
TABLE
  2
LAYER
  5
2
330
0
100
AcDbSymbolTable
 70
    10
  0
LAYER
  5
10
330
2
100
AcDbSymbolTableRecord
100
AcDbLayerTableRecord
  2
0
 70
     0
 62
     7
  6
CONTINUOUS
  0
LAYER
  5
6A
330
2
100
AcDbSymbolTableRecord
100
AcDbLayerTableRecord
  2
LAYER1
 70
     0
 62
     7
  6
CONTINUOUS
  0
LAYER
  5
6B
330
2
100
AcDbSymbolTableRecord
100
AcDbLayerTableRecord
  2
CONSTRUCTION
 70
     0
 62
     7
  6
CONTINUOUS
  0
LAYER
  5
6C
330
2
100
AcDbSymbolTableRecord
100
AcDbLayerTableRecord
  2
DIMENSION
 70
     0
 62
     7
  6
CONTINUOUS
  0
LAYER
  5
6D
330
2
100
AcDbSymbolTableRecord
100
AcDbLayerTableRecord
  2
THRU-CUT
 70
     0
 62
     7
  6
CONTINUOUS
  0
LAYER
  5
6E
330
2
100
AcDbSymbolTableRecord
100
AcDbLayerTableRecord
  2
CREASE
 70
     0
 62
     7
  6
CONTINUOUS
  0
LAYER
  5
6F
330
2
100
AcDbSymbolTableRecord
100
AcDbLayerTableRecord
  2
MAINDIMENSIONS
 70
     0
 62
     7
  6
CONTINUOUS
  0
LAYER
  5
70
330
2
100
AcDbSymbolTableRecord
100
AcDbLayerTableRecord
  2
NOMEASURE
 70
     0
 62
     7
  6
CONTINUOUS
  0
LAYER
  5
71
330
2
100
AcDbSymbolTableRecord
100
AcDbLayerTableRecord
  2
PERF-CUT
 70
     0
 62
     7
  6
CONTINUOUS
  0
LAYER
  5
95
330
2
100
AcDbSymbolTableRecord
100
AcDbLayerTableRecord
  2
DEFPOINTS
 70
     0
 62
     7
  6
CONTINUOUS
  0
ENDTAB
  0
TABLE
  2
STYLE
  5
3
330
0
100
AcDbSymbolTable
 70
     4
  0
STYLE
  5
11
330
3
100
AcDbSymbolTableRecord
100
AcDbTextStyleTableRecord
  2
STANDARD
 70
     0
 40
0.0
 41
1.0
 50
0.0
 71
     0
 42
0.2
  3
txt
  4

  0
STYLE
  5
3B
330
3
100
AcDbSymbolTableRecord
100
AcDbTextStyleTableRecord
  2
ODASHXSTYLE
 70
     0
 40
0.0
 41
1.0
 50
0.0
 71
     0
 42
0.2
  3
txt
  4

  0
STYLE
  5
3C
330
3
100
AcDbSymbolTableRecord
100
AcDbTextStyleTableRecord
  2
ODATTFSTYLE
 70
     0
 40
0.0
 41
1.0
 50
0.0
 71
     0
 42
0.2
  3
VERDANA.TTF
  4

1001
ACAD
1000
Verdana
1071
       34
  0
STYLE
  5
3D
330
3
100
AcDbSymbolTableRecord
100
AcDbTextStyleTableRecord
  2

 70
     1
 40
0.0
 41
1.0
 50
0.0
 71
     0
 42
22.45
  3
ltypeshp.shx
  4

  0
ENDTAB
  0
TABLE
  2
VIEW
  5
6
330
0
100
AcDbSymbolTable
 70
     0
  0
ENDTAB
  0
TABLE
  2
UCS
  5
7
330
0
100
AcDbSymbolTable
 70
     0
  0
ENDTAB
  0
TABLE
  2
APPID
  5
9
330
0
100
AcDbSymbolTable
 70
     1
  0
APPID
  5
12
330
9
100
AcDbSymbolTableRecord
100
AcDbRegAppTableRecord
  2
ACAD
 70
     0
  0
ENDTAB
  0
TABLE
  2
DIMSTYLE
  5
A
330
0
100
AcDbSymbolTable
 70
     9
  0
DIMSTYLE
105
27
330
A
100
AcDbSymbolTableRecord
100
AcDbDimStyleTableRecord
  2
STANDARD
 70
     0
  3

  4

  5

  6

  7

 40
1.0
 41
0.18
 42
0.0625
 43
0.38
 44
0.18
 45
0.0
 46
0.0
 47
0.0
 48
0.0
140
0.18
141
0.09
142
0.0
143
25.4
144
1.0
145
0.0
146
1.0
147
0.09
 71
     0
 72
     0
 73
     1
 74
     1
 75
     0
 76
     0
 77
     0
 78
     0
170
     0
171
     2
172
     0
173
     0
174
     0
175
     0
176
     0
177
     0
178
     0
270
     2
271
     4
272
     4
273
     2
274
     2
340
11
275
     0
280
     0
281
     0
282
     0
283
     1
284
     0
285
     0
286
     0
287
     3
288
     0
  0
DIMSTYLE
105
3E
330
A
100
AcDbSymbolTableRecord
100
AcDbDimStyleTableRecord
  2
ODADIMSTYLE0
 70
     0
  3

  4

  5

  6

  7

 40
1.0
 41
0.18
 42
0.0625
 43
0.38
 44
0.18
 45
0.0
 46
0.0
 47
0.0
 48
0.0
140
0.18
141
0.09
142
0.0
143
25.4
144
1.0
145
0.0
146
1.0
147
0.09
 71
     0
 72
     0
 73
     1
 74
     1
 75
     0
 76
     0
 77
     0
 78
     0
170
     0
171
     2
172
     0
173
     0
174
     0
175
     0
176
     0
177
     0
178
     0
270
     2
271
     4
272
     4
273
     2
274
     2
340
11
275
     0
280
     0
281
     0
282
     0
283
     1
284
     0
285
     0
286
     0
287
     3
288
     0
  0
DIMSTYLE
105
3F
102
{ACAD_REACTORS
330
72
330
A3
330
C3
330
D1
330
E9
330
115
330
125
330
133
330
141
330
14F
102
}
330
A
100
AcDbSymbolTableRecord
100
AcDbDimStyleTableRecord
  2
ODADIMSTYLE1
 70
     0
  3

  4

  5

  6

  7

 40
1.0
 41
0.18
 42
0.0625
 43
0.38
 44
0.18
 45
0.0
 46
0.0
 47
0.0
 48
0.0
140
0.18
141
0.09
142
0.0
143
25.4
144
1.0
145
0.0
146
1.0
147
0.09
 71
     0
 72
     0
 73
     1
 74
     1
 75
     0
 76
     0
 77
     0
 78
     0
170
     0
171
     2
172
     0
173
     0
174
     0
175
     0
176
     0
177
     0
178
     0
270
     2
271
     4
272
     4
273
     2
274
     2
340
11
275
     0
280
     0
281
     0
282
     0
283
     1
284
     0
285
     0
286
     0
287
     3
288
     0
  0
DIMSTYLE
105
40
330
A
100
AcDbSymbolTableRecord
100
AcDbDimStyleTableRecord
  2
ODADIMSTYLE2
 70
     0
  3

  4

  5
CLOSEDBLANK
  6

  7

 40
1.0
 41
0.18
 42
0.0625
 43
0.38
 44
0.18
 45
0.0
 46
0.0
 47
0.0
 48
0.0
140
0.18
141
0.09
142
0.0
143
25.4
144
1.0
145
0.0
146
1.0
147
0.09
 71
     0
 72
     0
 73
     1
 74
     1
 75
     0
 76
     0
 77
     0
 78
     0
170
     0
171
     2
172
     0
173
     0
174
     0
175
     0
176
     0
177
     0
178
     0
270
     2
271
     4
272
     4
273
     2
274
     2
340
11
275
     0
280
     0
281
     0
282
     0
283
     1
284
     0
285
     0
286
     0
287
     3
288
     0
  0
DIMSTYLE
105
47
330
A
100
AcDbSymbolTableRecord
100
AcDbDimStyleTableRecord
  2
ODADIMSTYLE3
 70
     0
  3

  4

  5
NONE
  6

  7

 40
1.0
 41
0.18
 42
0.0625
 43
0.38
 44
0.18
 45
0.0
 46
0.0
 47
0.0
 48
0.0
140
0.18
141
0.09
142
0.0
143
25.4
144
1.0
145
0.0
146
1.0
147
0.09
 71
     0
 72
     0
 73
     1
 74
     1
 75
     0
 76
     0
 77
     0
 78
     0
170
     0
171
     2
172
     0
173
     0
174
     0
175
     0
176
     0
177
     0
178
     0
270
     2
271
     4
272
     4
273
     2
274
     2
340
11
275
     0
280
     0
281
     0
282
     0
283
     1
284
     0
285
     0
286
     0
287
     3
288
     0
  0
DIMSTYLE
105
4B
330
A
100
AcDbSymbolTableRecord
100
AcDbDimStyleTableRecord
  2
ODADIMSTYLE4
 70
     0
  3

  4

  5
OBLIQUE
  6

  7

 40
1.0
 41
0.18
 42
0.0625
 43
0.38
 44
0.18
 45
0.0
 46
0.0
 47
0.0
 48
0.0
140
0.18
141
0.09
142
0.0
143
25.4
144
1.0
145
0.0
146
1.0
147
0.09
 71
     0
 72
     0
 73
     1
 74
     1
 75
     0
 76
     0
 77
     0
 78
     0
170
     0
171
     2
172
     0
173
     0
174
     0
175
     0
176
     0
177
     0
178
     0
270
     2
271
     4
272
     4
273
     2
274
     2
340
11
275
     0
280
     0
281
     0
282
     0
283
     1
284
     0
285
     0
286
     0
287
     3
288
     0
  0
DIMSTYLE
105
50
330
A
100
AcDbSymbolTableRecord
100
AcDbDimStyleTableRecord
  2
ODADIMSTYLE5
 70
     0
  3

  4

  5

  6

  7

 40
1.0
 41
0.18
 42
0.0625
 43
0.38
 44
0.18
 45
0.0
 46
0.0
 47
0.0
 48
0.0
140
0.18
141
0.09
142
0.0
143
25.4
144
1.0
145
0.0
146
1.0
147
0.09
 71
     0
 72
     0
 73
     1
 74
     1
 75
     0
 76
     0
 77
     0
 78
     0
170
     0
171
     2
172
     0
173
     0
174
     0
175
     0
176
     0
177
     0
178
     0
270
     2
271
     4
272
     4
273
     2
274
     2
340
11
275
     0
280
     0
281
     0
282
     0
283
     1
284
     0
285
     0
286
     0
287
     3
288
     0
  0
DIMSTYLE
105
51
330
A
100
AcDbSymbolTableRecord
100
AcDbDimStyleTableRecord
  2
ODADIMSTYLE6
 70
     0
  3

  4

  5
DOT
  6

  7

 40
1.0
 41
0.18
 42
0.0625
 43
0.38
 44
0.18
 45
0.0
 46
0.0
 47
0.0
 48
0.0
140
0.18
141
0.09
142
0.0
143
25.4
144
1.0
145
0.0
146
1.0
147
0.09
 71
     0
 72
     0
 73
     1
 74
     1
 75
     0
 76
     0
 77
     0
 78
     0
170
     0
171
     2
172
     0
173
     0
174
     0
175
     0
176
     0
177
     0
178
     0
270
     2
271
     4
272
     4
273
     2
274
     2
340
11
275
     0
280
     0
281
     0
282
     0
283
     1
284
     0
285
     0
286
     0
287
     3
288
     0
  0
DIMSTYLE
105
5A
330
A
100
AcDbSymbolTableRecord
100
AcDbDimStyleTableRecord
  2
ODADIMSTYLE7
 70
     0
  3

  4

  5
DOTBLANK
  6

  7

 40
1.0
 41
0.18
 42
0.0625
 43
0.38
 44
0.18
 45
0.0
 46
0.0
 47
0.0
 48
0.0
140
0.18
141
0.09
142
0.0
143
25.4
144
1.0
145
0.0
146
1.0
147
0.09
 71
     0
 72
     0
 73
     1
 74
     1
 75
     0
 76
     0
 77
     0
 78
     0
170
     0
171
     2
172
     0
173
     0
174
     0
175
     0
176
     0
177
     0
178
     0
270
     2
271
     4
272
     4
273
     2
274
     2
340
11
275
     0
280
     0
281
     0
282
     0
283
     1
284
     0
285
     0
286
     0
287
     3
288
     0
  0
ENDTAB
  0
TABLE
  2
BLOCK_RECORD
  5
1
330
0
100
AcDbSymbolTable
 70
    16
  0
BLOCK_RECORD
  5
1F
330
1
100
AcDbSymbolTableRecord
100
AcDbBlockTableRecord
  2
*MODEL_SPACE
  0
BLOCK_RECORD
  5
1B
330
1
100
AcDbSymbolTableRecord
100
AcDbBlockTableRecord
  2
*PAPER_SPACE
  0
BLOCK_RECORD
  5
41
330
1
100
AcDbSymbolTableRecord
100
AcDbBlockTableRecord
  2
_CLOSEDBLANK
  0
BLOCK_RECORD
  5
48
330
1
100
AcDbSymbolTableRecord
100
AcDbBlockTableRecord
  2
_NONE
  0
BLOCK_RECORD
  5
4C
330
1
100
AcDbSymbolTableRecord
100
AcDbBlockTableRecord
  2
_OBLIQUE
  0
BLOCK_RECORD
  5
52
330
1
100
AcDbSymbolTableRecord
100
AcDbBlockTableRecord
  2
_DOT
  0
BLOCK_RECORD
  5
5B
330
1
100
AcDbSymbolTableRecord
100
AcDbBlockTableRecord
  2
_DOTBLANK
  0
BLOCK_RECORD
  5
96
330
1
100
AcDbSymbolTableRecord
100
AcDbBlockTableRecord
  2
*D6
  0
BLOCK_RECORD
  5
A4
330
1
100
AcDbSymbolTableRecord
100
AcDbBlockTableRecord
  2
*D7
  0
BLOCK_RECORD
  5
C4
330
1
100
AcDbSymbolTableRecord
100
AcDbBlockTableRecord
  2
*D8
  0
BLOCK_RECORD
  5
D2
330
1
100
AcDbSymbolTableRecord
100
AcDbBlockTableRecord
  2
*D9
  0
BLOCK_RECORD
  5
EA
330
1
100
AcDbSymbolTableRecord
100
AcDbBlockTableRecord
  2
*D10
  0
BLOCK_RECORD
  5
116
330
1
100
AcDbSymbolTableRecord
100
AcDbBlockTableRecord
  2
*D11
  0
BLOCK_RECORD
  5
126
330
1
100
AcDbSymbolTableRecord
100
AcDbBlockTableRecord
  2
*D12
  0
BLOCK_RECORD
  5
134
330
1
100
AcDbSymbolTableRecord
100
AcDbBlockTableRecord
  2
*D13
  0
BLOCK_RECORD
  5
142
330
1
100
AcDbSymbolTableRecord
100
AcDbBlockTableRecord
  2
*D14
  0
BLOCK_RECORD
  5
150
330
1
100
AcDbSymbolTableRecord
100
AcDbBlockTableRecord
  2
*D15
  0
ENDTAB
  0
ENDSEC
  0
SECTION
  2
BLOCKS
  0
BLOCK
  5
20
330
1F
100
AcDbEntity
  8
0
100
AcDbBlockBegin
  2
*MODEL_SPACE
 70
     0
 10
0.0
 20
0.0
 30
0.0
  3
*MODEL_SPACE
  1

  0
ENDBLK
  5
21
330
1F
100
AcDbEntity
  8
0
100
AcDbBlockEnd
  0
BLOCK
  5
1C
330
1B
100
AcDbEntity
 67
     1
  8
0
100
AcDbBlockBegin
  2
*PAPER_SPACE
 70
     0
 10
0.0
 20
0.0
 30
0.0
  3
*PAPER_SPACE
  1

  0
ENDBLK
  5
1D
330
1B
100
AcDbEntity
 67
     1
  8
0
100
AcDbBlockEnd
  0
BLOCK
  5
42
330
41
100
AcDbEntity
  8
0
100
AcDbBlockBegin
  2
_CLOSEDBLANK
 70
     0
 10
0.0
 20
0.0
 30
0.0
  3
_CLOSEDBLANK
  1

  0
LINE
  5
44
330
41
100
AcDbEntity
  8
0
  6
BYBLOCK
 62
     0
100
AcDbLine
 10
-1.0
 20
0.166667
 30
0.0
 11
0.0
 21
0.0
 31
0.0
  0
LINE
  5
45
330
41
100
AcDbEntity
  8
0
  6
BYBLOCK
 62
     0
100
AcDbLine
 10
0.0
 20
0.0
 30
0.0
 11
-1.0
 21
-0.166667
 31
0.0
  0
LINE
  5
46
330
41
100
AcDbEntity
  8
0
  6
BYBLOCK
 62
     0
100
AcDbLine
 10
-1.0
 20
0.166667
 30
0.0
 11
-1.0
 21
-0.166667
 31
0.0
  0
ENDBLK
  5
43
330
41
100
AcDbEntity
  8
0
100
AcDbBlockEnd
  0
BLOCK
  5
49
330
48
100
AcDbEntity
  8
0
100
AcDbBlockBegin
  2
_NONE
 70
     0
 10
0.0
 20
0.0
 30
0.0
  3
_NONE
  1

  0
ENDBLK
  5
4A
330
48
100
AcDbEntity
  8
0
100
AcDbBlockEnd
  0
BLOCK
  5
4D
330
4C
100
AcDbEntity
  8
0
100
AcDbBlockBegin
  2
_OBLIQUE
 70
     0
 10
0.0
 20
0.0
 30
0.0
  3
_OBLIQUE
  1

  0
LINE
  5
4F
330
4C
100
AcDbEntity
  8
0
  6
BYBLOCK
 62
     0
100
AcDbLine
 10
-0.5
 20
-0.5
 30
0.0
 11
0.5
 21
0.5
 31
0.0
  0
ENDBLK
  5
4E
330
4C
100
AcDbEntity
  8
0
100
AcDbBlockEnd
  0
BLOCK
  5
53
330
52
100
AcDbEntity
  8
0
100
AcDbBlockBegin
  2
_DOT
 70
     0
 10
0.0
 20
0.0
 30
0.0
  3
_DOT
  1

  0
POLYLINE
  5
55
330
52
100
AcDbEntity
  8
0
  6
BYBLOCK
 62
     0
100
AcDb2dPolyline
 66
     1
 10
0.0
 20
0.0
 30
0.0
 70
     1
 40
0.5
 41
0.5
  0
VERTEX
  5
57
330
55
100
AcDbEntity
  8
0
  6
BYBLOCK
 62
     0
100
AcDbVertex
100
AcDb2dVertex
 10
-0.25
 20
0.0
 30
0.0
 42
1.0
  0
VERTEX
  5
58
330
55
100
AcDbEntity
  8
0
  6
BYBLOCK
 62
     0
100
AcDbVertex
100
AcDb2dVertex
 10
0.25
 20
0.0
 30
0.0
 42
1.0
  0
SEQEND
  5
59
330
55
100
AcDbEntity
  8
0
  6
BYBLOCK
 62
     0
  0
LINE
  5
56
330
52
100
AcDbEntity
  8
0
  6
BYBLOCK
 62
     0
100
AcDbLine
 10
-0.5
 20
0.0
 30
0.0
 11
-1.0
 21
0.0
 31
0.0
  0
ENDBLK
  5
54
330
52
100
AcDbEntity
  8
0
100
AcDbBlockEnd
  0
BLOCK
  5
5C
330
5B
100
AcDbEntity
  8
0
100
AcDbBlockBegin
  2
_DOTBLANK
 70
     0
 10
0.0
 20
0.0
 30
0.0
  3
_DOTBLANK
  1

  0
CIRCLE
  5
5E
330
5B
100
AcDbEntity
  8
0
  6
BYBLOCK
 62
     0
100
AcDbCircle
 10
0.0
 20
0.0
 30
0.0
 40
0.5
  0
LINE
  5
5F
330
5B
100
AcDbEntity
  8
0
  6
BYBLOCK
 62
     0
100
AcDbLine
 10
-0.5
 20
0.0
 30
0.0
 11
-1.0
 21
0.0
 31
0.0
  0
ENDBLK
  5
5D
330
5B
100
AcDbEntity
  8
0
100
AcDbBlockEnd
  0
BLOCK
  5
A1
330
96
100
AcDbEntity
  8
0
100
AcDbBlockBegin
  2
*D6
 70
     1
 10
0.0
 20
0.0
 30
0.0
  3
*D6
  1

  0
LINE
  5
97
330
96
100
AcDbEntity
  8
LAYER1
 62
     0
100
AcDbLine
 10
21.50393813383334
 20
13.3125
 30
0.0
 11
23.90910159980289
 21
13.3125
 31
0.0
  0
LINE
  5
98
330
96
100
AcDbEntity
  8
LAYER1
 62
     0
100
AcDbLine
 10
21.50393813383334
 20
-3.062500000000002
 30
0.0
 11
23.90910159980289
 21
-3.062500000000002
 31
0.0
  0
LINE
  5
99
330
96
100
AcDbEntity
  8
LAYER1
 62
     0
100
AcDbLine
 10
23.72910159980289
 20
12.88525313138962
 30
0.0
 11
23.72910159980289
 21
5.344191324114798
 31
0.0
  0
LINE
  5
9A
330
96
100
AcDbEntity
  8
LAYER1
 62
     0
100
AcDbLine
 10
23.72910159980289
 20
-2.63525313138962
 30
0.0
 11
23.72910159980289
 21
4.905808675885199
 31
0.0
  0
SOLID
  5
9B
330
96
100
AcDbEntity
  8
LAYER1
 62
     0
100
AcDbTrace
 10
23.80030941123795
 20
12.88525313138962
 30
0.0
 11
23.65789378836783
 21
12.88525313138962
 31
0.0
 12
23.72910159980289
 22
13.3125
 32
0.0
 13
23.72910159980289
 23
13.3125
 33
0.0
  0
SOLID
  5
9C
330
96
100
AcDbEntity
  8
LAYER1
 62
     0
100
AcDbTrace
 10
23.65789378836783
 20
-2.63525313138962
 30
0.0
 11
23.80030941123795
 21
-2.63525313138962
 31
0.0
 12
23.72910159980289
 22
-3.062500000000002
 32
0.0
 13
23.72910159980289
 23
-3.062500000000002
 33
0.0
  0
MTEXT
  5
9D
330
96
100
AcDbEntity
  8
LAYER1
 62
     0
100
AcDbMText
 10
23.72910159980289
 20
5.124999999999998
 30
0.0
 40
0.258382648229599
 41
0.0
 71
     5
 72
     1
  1
\A1;16.3750
  0
POINT
  5
9E
330
96
100
AcDbEntity
  8
DEFPOINTS
 62
     0
100
AcDbPoint
 10
21.44143813383334
 20
13.3125
 30
0.0
  0
POINT
  5
9F
330
96
100
AcDbEntity
  8
DEFPOINTS
 62
     0
100
AcDbPoint
 10
21.44143813383334
 20
-3.062500000000002
 30
0.0
  0
POINT
  5
A0
330
96
100
AcDbEntity
  8
DEFPOINTS
 62
     0
100
AcDbPoint
 10
23.72910159980289
 20
-3.062500000000002
 30
0.0
  0
ENDBLK
  5
A2
330
96
100
AcDbEntity
  8
0
100
AcDbBlockEnd
  0
BLOCK
  5
AF
330
A4
100
AcDbEntity
  8
0
100
AcDbBlockBegin
  2
*D7
 70
     1
 10
0.0
 20
0.0
 30
0.0
  3
*D7
  1

  0
LINE
  5
A5
330
A4
100
AcDbEntity
  8
LAYER1
 62
     0
100
AcDbLine
 10
21.75
 20
10.4375
 30
0.0
 11
22.47137769643595
 21
10.4375
 31
0.0
  0
LINE
  5
A6
330
A4
100
AcDbEntity
  8
LAYER1
 62
     0
100
AcDbLine
 10
21.75
 20
-0.1875000000000002
 30
0.0
 11
22.47137769643595
 21
-0.1874999999999999
 31
0.0
  0
LINE
  5
A7
330
A4
100
AcDbEntity
  8
LAYER1
 62
     0
100
AcDbLine
 10
22.29137769643595
 20
9.99370539188385
 30
0.0
 11
22.29137769643595
 21
5.349195044636725
 31
0.0
  0
LINE
  5
A8
330
A4
100
AcDbEntity
  8
LAYER1
 62
     0
100
AcDbLine
 10
22.29137769643595
 20
0.2562946081161499
 30
0.0
 11
22.29137769643595
 21
4.900804955363274
 31
0.0
  0
SOLID
  5
A9
330
A4
100
AcDbEntity
  8
LAYER1
 62
     0
100
AcDbTrace
 10
22.36534346445531
 20
9.99370539188385
 30
0.0
 11
22.21741192841659
 21
9.99370539188385
 31
0.0
 12
22.29137769643595
 22
10.4375
 32
0.0
 13
22.29137769643595
 23
10.4375
 33
0.0
  0
SOLID
  5
AA
330
A4
100
AcDbEntity
  8
LAYER1
 62
     0
100
AcDbTrace
 10
22.21741192841659
 20
0.2562946081161499
 30
0.0
 11
22.36534346445531
 21
0.2562946081161499
 31
0.0
 12
22.29137769643595
 22
-0.1875
 32
0.0
 13
22.29137769643595
 23
-0.1875
 33
0.0
  0
MTEXT
  5
AB
330
A4
100
AcDbEntity
  8
LAYER1
 62
     0
100
AcDbMText
 10
22.29137769643595
 20
5.125
 30
0.0
 40
0.2683900892734528
 41
0.0
 71
     5
 72
     1
  1
\A1;10.6250
  0
POINT
  5
AC
330
A4
100
AcDbEntity
  8
DEFPOINTS
 62
     0
100
AcDbPoint
 10
21.6875
 20
10.4375
 30
0.0
  0
POINT
  5
AD
330
A4
100
AcDbEntity
  8
DEFPOINTS
 62
     0
100
AcDbPoint
 10
21.6875
 20
-0.1875000000000002
 30
0.0
  0
POINT
  5
AE
330
A4
100
AcDbEntity
  8
DEFPOINTS
 62
     0
100
AcDbPoint
 10
22.29137769643595
 20
-0.1875000000000003
 30
0.0
  0
ENDBLK
  5
B0
330
A4
100
AcDbEntity
  8
0
100
AcDbBlockEnd
  0
BLOCK
  5
CF
330
C4
100
AcDbEntity
  8
0
100
AcDbBlockBegin
  2
*D8
 70
     1
 10
0.0
 20
0.0
 30
0.0
  3
*D8
  1

  0
LINE
  5
C5
330
C4
100
AcDbEntity
  8
LAYER1
 62
     0
100
AcDbLine
 10
18.625
 20
0.0625000000000004
 30
0.0
 11
18.625
 21
-4.88085905315133
 31
0.0
  0
LINE
  5
C6
330
C4
100
AcDbEntity
  8
LAYER1
 62
     0
100
AcDbLine
 10
21.6875
 20
-0.2499999999999998
 30
0.0
 11
21.6875
 21
-4.88085905315133
 31
0.0
  0
LINE
  5
C7
330
C4
100
AcDbEntity
  8
LAYER1
 62
     0
100
AcDbLine
 10
19.0456620156765
 20
-4.70085905315133
 30
0.0
 11
19.75301199763889
 21
-4.70085905315133
 31
0.0
  0
LINE
  5
C8
330
C4
100
AcDbEntity
  8
LAYER1
 62
     0
100
AcDbLine
 10
21.26683798432351
 20
-4.70085905315133
 30
0.0
 11
21.19289955671221
 21
-4.70085905315133
 31
0.0
  0
SOLID
  5
C9
330
C4
100
AcDbEntity
  8
LAYER1
 62
     0
100
AcDbTrace
 10
19.0456620156765
 20
-4.630748717205247
 30
0.0
 11
19.0456620156765
 21
-4.770969389097413
 31
0.0
 12
18.625
 22
-4.70085905315133
 32
0.0
 13
18.625
 23
-4.70085905315133
 33
0.0
  0
SOLID
  5
CA
330
C4
100
AcDbEntity
  8
LAYER1
 62
     0
100
AcDbTrace
 10
21.26683798432351
 20
-4.770969389097413
 30
0.0
 11
21.26683798432351
 21
-4.630748717205247
 31
0.0
 12
21.6875
 22
-4.70085905315133
 32
0.0
 13
21.6875
 23
-4.70085905315133
 33
0.0
  0
MTEXT
  5
CB
330
C4
100
AcDbEntity
  8
LAYER1
 62
     0
100
AcDbMText
 10
20.47295577717555
 20
-4.70085905315133
 30
0.0
 40
0.254400372505188
 41
0.0
 71
     5
 72
     1
  1
\A1;3.0625
  0
POINT
  5
CC
330
C4
100
AcDbEntity
  8
DEFPOINTS
 62
     0
100
AcDbPoint
 10
18.625
 20
0.1250000000000004
 30
0.0
  0
POINT
  5
CD
330
C4
100
AcDbEntity
  8
DEFPOINTS
 62
     0
100
AcDbPoint
 10
21.6875
 20
-0.1874999999999998
 30
0.0
  0
POINT
  5
CE
330
C4
100
AcDbEntity
  8
DEFPOINTS
 62
     0
100
AcDbPoint
 10
21.6875
 20
-4.70085905315133
 30
0.0
  0
ENDBLK
  5
D0
330
C4
100
AcDbEntity
  8
0
100
AcDbBlockEnd
  0
BLOCK
  5
DD
330
D2
100
AcDbEntity
  8
0
100
AcDbBlockBegin
  2
*D9
 70
     1
 10
0.0
 20
0.0
 30
0.0
  3
*D9
  1

  0
LINE
  5
D3
330
D2
100
AcDbEntity
  8
LAYER1
 62
     0
100
AcDbLine
 10
0.0
 20
0.0
 30
0.0
 11
0.0
 21
-4.993360913994694
 31
0.0
  0
LINE
  5
D4
330
D2
100
AcDbEntity
  8
LAYER1
 62
     0
100
AcDbLine
 10
21.6875
 20
-0.25
 30
0.0
 11
21.6875
 21
-4.993360913994694
 31
0.0
  0
LINE
  5
D5
330
D2
100
AcDbEntity
  8
LAYER1
 62
     0
100
AcDbLine
 10
0.3568249940872192
 20
-4.813360913994694
 30
0.0
 11
10.12009139042191
 21
-4.813360913994694
 31
0.0
  0
LINE
  5
D6
330
D2
100
AcDbEntity
  8
LAYER1
 62
     0
100
AcDbLine
 10
21.33067500591278
 20
-4.813360913994694
 30
0.0
 11
11.57430453134101
 21
-4.813360913994694
 31
0.0
  0
SOLID
  5
D7
330
D2
100
AcDbEntity
  8
LAYER1
 62
     0
100
AcDbTrace
 10
0.3568249940872192
 20
-4.753890081646825
 30
0.0
 11
0.3568249940872192
 21
-4.872831746342564
 31
0.0
 12
0.0
 22
-4.813360913994694
 32
0.0
 13
0.0
 23
-4.813360913994694
 33
0.0
  0
SOLID
  5
D8
330
D2
100
AcDbEntity
  8
LAYER1
 62
     0
100
AcDbTrace
 10
21.33067500591278
 20
-4.872831746342564
 30
0.0
 11
21.33067500591278
 21
-4.753890081646825
 31
0.0
 12
21.6875
 22
-4.813360913994694
 32
0.0
 13
21.6875
 23
-4.813360913994694
 33
0.0
  0
MTEXT
  5
D9
330
D2
100
AcDbEntity
  8
LAYER1
 62
     0
100
AcDbMText
 10
10.84719796088146
 20
-4.813360913994694
 30
0.0
 40
0.2157941609621048
 41
0.0
 71
     5
 72
     1
  1
\A1;21.6875
  0
POINT
  5
DA
330
D2
100
AcDbEntity
  8
DEFPOINTS
 62
     0
100
AcDbPoint
 10
0.0
 20
0.0625
 30
0.0
  0
POINT
  5
DB
330
D2
100
AcDbEntity
  8
DEFPOINTS
 62
     0
100
AcDbPoint
 10
21.6875
 20
-0.1875
 30
0.0
  0
POINT
  5
DC
330
D2
100
AcDbEntity
  8
DEFPOINTS
 62
     0
100
AcDbPoint
 10
21.6875
 20
-4.813360913994694
 30
0.0
  0
ENDBLK
  5
DE
330
D2
100
AcDbEntity
  8
0
100
AcDbBlockEnd
  0
BLOCK
  5
F5
330
EA
100
AcDbEntity
  8
0
100
AcDbBlockBegin
  2
*D10
 70
     1
 10
0.0
 20
0.0
 30
0.0
  3
*D10
  1

  0
LINE
  5
EB
330
EA
100
AcDbEntity
  8
LAYER1
 62
     0
100
AcDbLine
 10
21.75
 20
-0.1875
 30
0.0
 11
22.40937957844461
 21
-0.1875
 31
0.0
  0
LINE
  5
EC
330
EA
100
AcDbEntity
  8
LAYER1
 62
     0
100
AcDbLine
 10
21.50393813383334
 20
-3.0625
 30
0.0
 11
22.40937957844461
 21
-3.0625
 31
0.0
  0
LINE
  5
ED
330
EA
100
AcDbEntity
  8
LAYER1
 62
     0
100
AcDbLine
 10
22.22937957844461
 20
-0.5872560739517212
 30
0.0
 11
22.22937957844461
 21
-1.415080423018259
 31
0.0
  0
LINE
  5
EE
330
EA
100
AcDbEntity
  8
LAYER1
 62
     0
100
AcDbLine
 10
22.22937957844461
 20
-2.662743926048279
 30
0.0
 11
22.22937957844461
 21
-1.83683768179111
 31
0.0
  0
SOLID
  5
EF
330
EA
100
AcDbEntity
  8
LAYER1
 62
     0
100
AcDbTrace
 10
22.2960055907699
 20
-0.5872560739517212
 30
0.0
 11
22.16275356611932
 21
-0.5872560739517212
 31
0.0
 12
22.22937957844461
 22
-0.1875
 32
0.0
 13
22.22937957844461
 23
-0.1875
 33
0.0
  0
SOLID
  5
F0
330
EA
100
AcDbEntity
  8
LAYER1
 62
     0
100
AcDbTrace
 10
22.16275356611932
 20
-2.662743926048279
 30
0.0
 11
22.2960055907699
 21
-2.662743926048279
 31
0.0
 12
22.22937957844461
 22
-3.0625
 32
0.0
 13
22.22937957844461
 23
-3.0625
 33
0.0
  0
MTEXT
  5
F1
330
EA
100
AcDbEntity
  8
LAYER1
 62
     0
100
AcDbMText
 10
22.22937957844461
 20
-1.625959052404685
 30
0.0
 40
0.24175725877285
 41
0.0
 71
     5
 72
     1
  1
\A1;2.8750
  0
POINT
  5
F2
330
EA
100
AcDbEntity
  8
DEFPOINTS
 62
     0
100
AcDbPoint
 10
21.6875
 20
-0.1875
 30
0.0
  0
POINT
  5
F3
330
EA
100
AcDbEntity
  8
DEFPOINTS
 62
     0
100
AcDbPoint
 10
21.44143813383334
 20
-3.0625
 30
0.0
  0
POINT
  5
F4
330
EA
100
AcDbEntity
  8
DEFPOINTS
 62
     0
100
AcDbPoint
 10
22.22937957844461
 20
-3.0625
 30
0.0
  0
ENDBLK
  5
F6
330
EA
100
AcDbEntity
  8
0
100
AcDbBlockEnd
  0
BLOCK
  5
121
330
116
100
AcDbEntity
  8
0
100
AcDbBlockBegin
  2
*D11
 70
     1
 10
0.0
 20
0.0
 30
0.0
  3
*D11
  1

  0
LINE
  5
117
330
116
100
AcDbEntity
  8
LAYER1
 62
     0
100
AcDbLine
 10
21.50393813383334
 20
13.3125
 30
0.0
 11
22.40937957844461
 21
13.3125
 31
0.0
  0
LINE
  5
118
330
116
100
AcDbEntity
  8
LAYER1
 62
     0
100
AcDbLine
 10
21.75
 20
10.4375
 30
0.0
 11
22.40937957844461
 21
10.4375
 31
0.0
  0
LINE
  5
119
330
116
100
AcDbEntity
  8
LAYER1
 62
     0
100
AcDbLine
 10
22.22937957844461
 20
12.91274392604828
 30
0.0
 11
22.22937957844461
 21
12.08683768179111
 31
0.0
  0
LINE
  5
11A
330
116
100
AcDbEntity
  8
LAYER1
 62
     0
100
AcDbLine
 10
22.22937957844461
 20
10.83725607395172
 30
0.0
 11
22.22937957844461
 21
11.66508042301826
 31
0.0
  0
SOLID
  5
11B
330
116
100
AcDbEntity
  8
LAYER1
 62
     0
100
AcDbTrace
 10
22.2960055907699
 20
12.91274392604828
 30
0.0
 11
22.16275356611932
 21
12.91274392604828
 31
0.0
 12
22.22937957844461
 22
13.3125
 32
0.0
 13
22.22937957844461
 23
13.3125
 33
0.0
  0
SOLID
  5
11C
330
116
100
AcDbEntity
  8
LAYER1
 62
     0
100
AcDbTrace
 10
22.16275356611932
 20
10.83725607395172
 30
0.0
 11
22.2960055907699
 21
10.83725607395172
 31
0.0
 12
22.22937957844461
 22
10.4375
 32
0.0
 13
22.22937957844461
 23
10.4375
 33
0.0
  0
MTEXT
  5
11D
330
116
100
AcDbEntity
  8
LAYER1
 62
     0
100
AcDbMText
 10
22.22937957844461
 20
11.87595905240468
 30
0.0
 40
0.24175725877285
 41
0.0
 71
     5
 72
     1
  1
\A1;2.8750
  0
POINT
  5
11E
330
116
100
AcDbEntity
  8
DEFPOINTS
 62
     0
100
AcDbPoint
 10
21.44143813383334
 20
13.3125
 30
0.0
  0
POINT
  5
11F
330
116
100
AcDbEntity
  8
DEFPOINTS
 62
     0
100
AcDbPoint
 10
21.6875
 20
10.4375
 30
0.0
  0
POINT
  5
120
330
116
100
AcDbEntity
  8
DEFPOINTS
 62
     0
100
AcDbPoint
 10
22.22937957844461
 20
10.4375
 30
0.0
  0
ENDBLK
  5
122
330
116
100
AcDbEntity
  8
0
100
AcDbBlockEnd
  0
BLOCK
  5
131
330
126
100
AcDbEntity
  8
0
100
AcDbBlockBegin
  2
*D12
 70
     1
 10
0.0
 20
0.0
 30
0.0
  3
*D12
  1

  0
LINE
  5
127
330
126
100
AcDbEntity
  8
LAYER1
 62
     0
100
AcDbLine
 10
0.0
 20
0.0
 30
0.0
 11
0.0
 21
-4.908777579483792
 31
0.0
  0
LINE
  5
128
330
126
100
AcDbEntity
  8
LAYER1
 62
     0
100
AcDbLine
 10
3.0625
 20
0.0625
 30
0.0
 11
3.0625
 21
-4.908777579483792
 31
0.0
  0
LINE
  5
129
330
126
100
AcDbEntity
  8
LAYER1
 62
     0
100
AcDbLine
 10
0.4219304025173187
 20
-4.728777579483793
 30
0.0
 11
0.8586779411590242
 21
-4.728777579483793
 31
0.0
  0
LINE
  5
12A
330
126
100
AcDbEntity
  8
LAYER1
 62
     0
100
AcDbLine
 10
2.640569597482681
 20
-4.728777579483793
 30
0.0
 11
2.30236438239888
 21
-4.728777579483793
 31
0.0
  0
SOLID
  5
12B
330
126
100
AcDbEntity
  8
LAYER1
 62
     0
100
AcDbTrace
 10
0.4219304025173187
 20
-4.658455845730906
 30
0.0
 11
0.4219304025173187
 21
-4.799099313236679
 31
0.0
 12
0.0
 22
-4.728777579483793
 32
0.0
 13
0.0
 23
-4.728777579483793
 33
0.0
  0
SOLID
  5
12C
330
126
100
AcDbEntity
  8
LAYER1
 62
     0
100
AcDbTrace
 10
2.640569597482681
 20
-4.799099313236679
 30
0.0
 11
2.640569597482681
 21
-4.658455845730906
 31
0.0
 12
3.0625
 22
-4.728777579483793
 32
0.0
 13
3.0625
 23
-4.728777579483793
 33
0.0
  0
MTEXT
  5
12D
330
126
100
AcDbEntity
  8
LAYER1
 62
     0
100
AcDbMText
 10
1.580521161778952
 20
-4.728777579483793
 30
0.0
 40
0.2551674544811249
 41
0.0
 71
     5
 72
     1
  1
\A1;3.0625
  0
POINT
  5
12E
330
126
100
AcDbEntity
  8
DEFPOINTS
 62
     0
100
AcDbPoint
 10
0.0
 20
0.0625
 30
0.0
  0
POINT
  5
12F
330
126
100
AcDbEntity
  8
DEFPOINTS
 62
     0
100
AcDbPoint
 10
3.0625
 20
0.125
 30
0.0
  0
POINT
  5
130
330
126
100
AcDbEntity
  8
DEFPOINTS
 62
     0
100
AcDbPoint
 10
3.0625
 20
-4.728777579483793
 30
0.0
  0
ENDBLK
  5
132
330
126
100
AcDbEntity
  8
0
100
AcDbBlockEnd
  0
BLOCK
  5
13F
330
134
100
AcDbEntity
  8
0
100
AcDbBlockBegin
  2
*D13
 70
     1
 10
0.0
 20
0.0
 30
0.0
  3
*D13
  1

  0
LINE
  5
135
330
134
100
AcDbEntity
  8
LAYER1
 62
     0
100
AcDbLine
 10
3.0625
 20
0.0625
 30
0.0
 11
3.0625
 21
-3.804932537641368
 31
0.0
  0
LINE
  5
136
330
134
100
AcDbEntity
  8
LAYER1
 62
     0
100
AcDbLine
 10
9.1875
 20
0.0625000000000004
 30
0.0
 11
9.1875
 21
-3.804932537641368
 31
0.0
  0
LINE
  5
137
330
134
100
AcDbEntity
  8
LAYER1
 62
     0
100
AcDbLine
 10
3.387896031141281
 20
-3.624932537641368
 30
0.0
 11
5.552402944820376
 21
-3.624932537641368
 31
0.0
  0
LINE
  5
138
330
134
100
AcDbEntity
  8
LAYER1
 62
     0
100
AcDbLine
 10
8.862103968858719
 20
-3.624932537641368
 30
0.0
 11
6.697597055179841
 21
-3.624932537641368
 31
0.0
  0
SOLID
  5
139
330
134
100
AcDbEntity
  8
LAYER1
 62
     0
100
AcDbTrace
 10
3.387896031141281
 20
-3.570699865784488
 30
0.0
 11
3.387896031141281
 21
-3.679165209498248
 31
0.0
 12
3.0625
 22
-3.624932537641368
 32
0.0
 13
3.0625
 23
-3.624932537641368
 33
0.0
  0
SOLID
  5
13A
330
134
100
AcDbEntity
  8
LAYER1
 62
     0
100
AcDbTrace
 10
8.862103968858719
 20
-3.679165209498248
 30
0.0
 11
8.862103968858719
 21
-3.570699865784488
 31
0.0
 12
9.1875
 22
-3.624932537641368
 32
0.0
 13
9.1875
 23
-3.624932537641368
 33
0.0
  0
MTEXT
  5
13B
330
134
100
AcDbEntity
  8
LAYER1
 62
     0
100
AcDbMText
 10
6.125000000000108
 20
-3.624932537641368
 30
0.0
 40
0.1967871487140656
 41
0.0
 71
     5
 72
     1
  1
\A1;6.1250
  0
POINT
  5
13C
330
134
100
AcDbEntity
  8
DEFPOINTS
 62
     0
100
AcDbPoint
 10
3.0625
 20
0.125
 30
0.0
  0
POINT
  5
13D
330
134
100
AcDbEntity
  8
DEFPOINTS
 62
     0
100
AcDbPoint
 10
9.1875
 20
0.1250000000000004
 30
0.0
  0
POINT
  5
13E
330
134
100
AcDbEntity
  8
DEFPOINTS
 62
     0
100
AcDbPoint
 10
9.1875
 20
-3.624932537641368
 30
0.0
  0
ENDBLK
  5
140
330
134
100
AcDbEntity
  8
0
100
AcDbBlockEnd
  0
BLOCK
  5
14D
330
142
100
AcDbEntity
  8
0
100
AcDbBlockBegin
  2
*D14
 70
     1
 10
0.0
 20
0.0
 30
0.0
  3
*D14
  1

  0
LINE
  5
143
330
142
100
AcDbEntity
  8
LAYER1
 62
     0
100
AcDbLine
 10
9.1875
 20
0.0625
 30
0.0
 11
9.1875
 21
-4.59209038810825
 31
0.0
  0
LINE
  5
144
330
142
100
AcDbEntity
  8
LAYER1
 62
     0
100
AcDbLine
 10
12.3125
 20
0.0625
 30
0.0
 11
12.3125
 21
-4.59209038810825
 31
0.0
  0
LINE
  5
145
330
142
100
AcDbEntity
  8
LAYER1
 62
     0
100
AcDbLine
 10
9.581200778484344
 20
-4.41209038810825
 30
0.0
 11
10.07348673844635
 21
-4.41209038810825
 31
0.0
  0
LINE
  5
146
330
142
100
AcDbEntity
  8
LAYER1
 62
     0
100
AcDbLine
 10
11.91879922151566
 20
-4.41209038810825
 30
0.0
 11
11.43262506395592
 21
-4.41209038810825
 31
0.0
  0
SOLID
  5
147
330
142
100
AcDbEntity
  8
LAYER1
 62
     0
100
AcDbTrace
 10
9.581200778484344
 20
-4.346473591694193
 30
0.0
 11
9.581200778484344
 21
-4.477707184522308
 31
0.0
 12
9.1875
 22
-4.41209038810825
 32
0.0
 13
9.1875
 23
-4.41209038810825
 33
0.0
  0
SOLID
  5
148
330
142
100
AcDbEntity
  8
LAYER1
 62
     0
100
AcDbTrace
 10
11.91879922151566
 20
-4.477707184522308
 30
0.0
 11
11.91879922151566
 21
-4.346473591694193
 31
0.0
 12
12.3125
 22
-4.41209038810825
 32
0.0
 13
12.3125
 23
-4.41209038810825
 33
0.0
  0
MTEXT
  5
149
330
142
100
AcDbEntity
  8
LAYER1
 62
     0
100
AcDbMText
 10
10.75305590120113
 20
-4.41209038810825
 30
0.0
 40
0.2380952388048172
 41
0.0
 71
     5
 72
     1
  1
\A1;3.1250
  0
POINT
  5
14A
330
142
100
AcDbEntity
  8
DEFPOINTS
 62
     0
100
AcDbPoint
 10
9.1875
 20
0.125
 30
0.0
  0
POINT
  5
14B
330
142
100
AcDbEntity
  8
DEFPOINTS
 62
     0
100
AcDbPoint
 10
12.3125
 20
0.125
 30
0.0
  0
POINT
  5
14C
330
142
100
AcDbEntity
  8
DEFPOINTS
 62
     0
100
AcDbPoint
 10
12.3125
 20
-4.41209038810825
 30
0.0
  0
ENDBLK
  5
14E
330
142
100
AcDbEntity
  8
0
100
AcDbBlockEnd
  0
BLOCK
  5
15B
330
150
100
AcDbEntity
  8
0
100
AcDbBlockBegin
  2
*D15
 70
     1
 10
0.0
 20
0.0
 30
0.0
  3
*D15
  1

  0
LINE
  5
151
330
150
100
AcDbEntity
  8
LAYER1
 62
     0
100
AcDbLine
 10
12.3125
 20
0.0625
 30
0.0
 11
12.3125
 21
-3.805538650288296
 31
0.0
  0
LINE
  5
152
330
150
100
AcDbEntity
  8
LAYER1
 62
     0
100
AcDbLine
 10
18.625
 20
0.0625
 30
0.0
 11
18.625
 21
-3.805538650288296
 31
0.0
  0
LINE
  5
153
330
150
100
AcDbEntity
  8
LAYER1
 62
     0
100
AcDbLine
 10
12.63615864515305
 20
-3.625538650288295
 30
0.0
 11
14.8987296876737
 21
-3.625538650288295
 31
0.0
  0
LINE
  5
154
330
150
100
AcDbEntity
  8
LAYER1
 62
     0
100
AcDbLine
 10
18.30134135484695
 20
-3.625538650288295
 30
0.0
 11
16.0387703123263
 21
-3.625538650288295
 31
0.0
  0
SOLID
  5
155
330
150
100
AcDbEntity
  8
LAYER1
 62
     0
100
AcDbTrace
 10
12.63615864515305
 20
-3.571595542762788
 30
0.0
 11
12.63615864515305
 21
-3.679481757813803
 31
0.0
 12
12.3125
 22
-3.625538650288295
 32
0.0
 13
12.3125
 23
-3.625538650288295
 33
0.0
  0
SOLID
  5
156
330
150
100
AcDbEntity
  8
LAYER1
 62
     0
100
AcDbTrace
 10
18.30134135484695
 20
-3.679481757813803
 30
0.0
 11
18.30134135484695
 21
-3.571595542762788
 31
0.0
 12
18.625
 22
-3.625538650288295
 32
0.0
 13
18.625
 23
-3.625538650288295
 33
0.0
  0
MTEXT
  5
157
330
150
100
AcDbEntity
  8
LAYER1
 62
     0
100
AcDbMText
 10
15.46875
 20
-3.625538650288295
 30
0.0
 40
0.195736438035965
 41
0.0
 71
     5
 72
     1
  1
\A1;6.3125
  0
POINT
  5
158
330
150
100
AcDbEntity
  8
DEFPOINTS
 62
     0
100
AcDbPoint
 10
12.3125
 20
0.125
 30
0.0
  0
POINT
  5
159
330
150
100
AcDbEntity
  8
DEFPOINTS
 62
     0
100
AcDbPoint
 10
18.625
 20
0.125
 30
0.0
  0
POINT
  5
15A
330
150
100
AcDbEntity
  8
DEFPOINTS
 62
     0
100
AcDbPoint
 10
18.625
 20
-3.625538650288295
 30
0.0
  0
ENDBLK
  5
15C
330
150
100
AcDbEntity
  8
0
100
AcDbBlockEnd
  0
ENDSEC
  0
SECTION
  2
ENTITIES
  0
DIMENSION
  5
72
330
1F
100
AcDbEntity
  8
LAYER1
 62
     5
100
AcDbDimension
  2
*D6
 10
23.72910159980289
 20
-3.062500000000002
 30
0.0
 11
23.72910159980289
 21
5.124999999999998
 31
0.0
 70
   160
  3
ODADIMSTYLE1
100
AcDbAlignedDimension
 13
21.44143813383334
 23
13.3125
 33
0.0
 14
21.44143813383334
 24
-3.062500000000002
 34
0.0
 50
270.0
100
AcDbRotatedDimension
1001
ACAD
1000
DSTYLE
1002
{
1070
   271
1070
     4
1070
    41
1040
0.4272468686103821
1070
   140
1040
0.258382648229599
1002
}
  0
DIMENSION
  5
A3
330
1F
100
AcDbEntity
  8
LAYER1
 62
     5
100
AcDbDimension
  2
*D7
 10
22.29137769643595
 20
-0.1875
 30
0.0
 11
22.29137769643595
 21
5.125
 31
0.0
 70
   160
  3
ODADIMSTYLE1
100
AcDbAlignedDimension
 13
21.6875
 23
10.4375
 33
0.0
 14
21.6875
 24
-0.1875000000000002
 34
0.0
 50
270.0
100
AcDbRotatedDimension
1001
ACAD
1000
DSTYLE
1002
{
1070
   271
1070
     4
1070
    41
1040
0.4437946081161499
1070
   140
1040
0.2683900892734528
1002
}
  0
ARC
  5
B1
330
1F
100
AcDbEntity
  8
THRU-CUT
 62
     5
100
AcDbCircle
 10
-18.625
 20
-0.125
 30
0.0
 40
0.2499999999999991
210
0.0
220
0.0
230
-1.0
100
AcDbArc
 50
4.999999999999992
 51
175.0
  0
LINE
  5
B2
330
1F
100
AcDbEntity
  8
CREASE
 62
     3
100
AcDbLine
 10
3.0625
 20
0.125
 30
0.0
 11
3.0625
 21
10.125
 31
0.0
  0
LINE
  5
B3
330
1F
100
AcDbEntity
  8
CREASE
 62
     3
100
AcDbLine
 10
9.1875
 20
10.125
 30
0.0
 11
9.1875
 21
0.125
 31
0.0
  0
LINE
  5
B4
330
1F
100
AcDbEntity
  8
THRU-CUT
 62
     5
100
AcDbLine
 10
18.37595132547706
 20
-0.1032110643130855
 30
0.0
 11
18.11704709150676
 21
-3.0625
 31
0.0
  0
LINE
  5
B5
330
1F
100
AcDbEntity
  8
THRU-CUT
 62
     5
100
AcDbLine
 10
18.87404867452294
 20
-0.1032110643130855
 30
0.0
 11
19.13295290849324
 21
-3.0625
 31
0.0
  0
LINE
  5
B6
330
1F
100
AcDbEntity
  8
THRU-CUT
 62
     5
100
AcDbLine
 10
12.06345132547706
 20
-0.1032110643130855
 30
0.0
 11
11.80454709150676
 21
-3.0625
 31
0.0
  0
LINE
  5
B7
330
1F
100
AcDbEntity
  8
THRU-CUT
 62
     5
100
AcDbLine
 10
12.56154867452294
 20
-0.1032110643130855
 30
0.0
 11
12.82045290849324
 21
-3.0625
 31
0.0
  0
LINE
  5
B8
330
1F
100
AcDbEntity
  8
THRU-CUT
 62
     5
100
AcDbLine
 10
2.554547091506762
 20
-3.0625
 30
0.0
 11
2.813451325477064
 21
-0.1032110643130855
 31
0.0
  0
LINE
  5
B9
330
1F
100
AcDbEntity
  8
THRU-CUT
 62
     5
100
AcDbLine
 10
3.570452908493238
 20
-3.0625
 30
0.0
 11
3.311548674522936
 21
-0.1032110643130855
 31
0.0
  0
ARC
  5
BA
330
1F
100
AcDbEntity
  8
THRU-CUT
 62
     5
100
AcDbCircle
 10
9.1875
 20
-0.125
 30
0.0
 40
0.2500000000000008
100
AcDbArc
 50
4.999999999999992
 51
175.0
  0
ARC
  5
BB
330
1F
100
AcDbEntity
  8
THRU-CUT
 62
     5
100
AcDbCircle
 10
3.0625
 20
-0.125
 30
0.0
 40
0.2499999999999995
100
AcDbArc
 50
4.999999999999992
 51
175.0
  0
LINE
  5
BC
330
1F
100
AcDbEntity
  8
CREASE
 62
     3
100
AcDbLine
 10
12.3125
 20
0.125
 30
0.0
 11
12.3125
 21
10.125
 31
0.0
  0
ARC
  5
BD
330
1F
100
AcDbEntity
  8
THRU-CUT
 62
     5
100
AcDbCircle
 10
-12.3125
 20
-0.125
 30
0.0
 40
0.2499999999999991
210
0.0
220
0.0
230
-1.0
100
AcDbArc
 50
4.999999999999992
 51
175.0
  0
LINE
  5
BE
330
1F
100
AcDbEntity
  8
CREASE
 62
     3
100
AcDbLine
 10
9.352859456941538
 20
0.0625
 30
0.0
 11
12.14714054305846
 21
0.0625
 31
0.0
  0
LINE
  5
BF
330
1F
100
AcDbEntity
  8
CREASE
 62
     3
100
AcDbLine
 10
3.304561459137964
 20
-0.0625
 30
0.0
 11
8.945438540862037
 21
-0.0625
 31
0.0
  0
LINE
  5
C0
330
1F
100
AcDbEntity
  8
CREASE
 62
     3
100
AcDbLine
 10
18.625
 20
10.125
 30
0.0
 11
18.625
 21
0.125
 31
0.0
  0
LINE
  5
C1
330
1F
100
AcDbEntity
  8
THRU-CUT
 62
     5
100
AcDbLine
 10
21.6875
 20
-0.25
 30
0.0
 11
21.6875
 21
10.5
 31
0.0
  0
LINE
  5
C2
330
1F
100
AcDbEntity
  8
THRU-CUT
 62
     5
100
AcDbLine
 10
8.67954709150676
 20
-3.0625
 30
0.0
 11
8.938451325477063
 21
-0.1032110643130855
 31
0.0
  0
DIMENSION
  5
C3
330
1F
100
AcDbEntity
  8
LAYER1
 62
     5
100
AcDbDimension
  2
*D8
 10
21.6875
 20
-4.70085905315133
 30
0.0
 11
20.47295577717555
 21
-4.70085905315133
 31
0.0
 70
   160
  3
ODADIMSTYLE1
100
AcDbAlignedDimension
 13
18.625
 23
0.1250000000000004
 33
0.0
 14
21.6875
 24
-0.1874999999999998
 34
0.0
100
AcDbRotatedDimension
1001
ACAD
1000
DSTYLE
1002
{
1070
   271
1070
     4
1070
    41
1040
0.4206620156764984
1070
   140
1040
0.254400372505188
1002
}
  0
DIMENSION
  5
D1
330
1F
100
AcDbEntity
  8
LAYER1
 62
     5
100
AcDbDimension
  2
*D9
 10
21.6875
 20
-4.813360913994694
 30
0.0
 11
10.84719796088146
 21
-4.813360913994694
 31
0.0
 70
   160
  3
ODADIMSTYLE1
100
AcDbAlignedDimension
 13
0.0
 23
0.0625
 33
0.0
 14
21.6875
 24
-0.1875
 34
0.0
100
AcDbRotatedDimension
1001
ACAD
1000
DSTYLE
1002
{
1070
   271
1070
     4
1070
    41
1040
0.3568249940872192
1070
   140
1040
0.2157941609621048
1002
}
  0
LINE
  5
DF
330
1F
100
AcDbEntity
  8
CREASE
 62
     3
100
AcDbLine
 10
12.57985908379695
 20
-0.3125
 30
0.0
 11
18.35764091620305
 21
-0.3125
 31
0.0
  0
LINE
  5
E0
330
1F
100
AcDbEntity
  8
CREASE
 62
     3
100
AcDbLine
 10
18.88142300085621
 20
-0.1875
 30
0.0
 11
21.6875
 21
-0.1875
 31
0.0
  0
LINE
  5
E1
330
1F
100
AcDbEntity
  8
THRU-CUT
 62
     5
100
AcDbLine
 10
19.13295290849324
 20
-3.0625
 30
0.0
 11
21.44143813383334
 21
-3.0625
 31
0.0
  0
LINE
  5
E2
330
1F
100
AcDbEntity
  8
THRU-CUT
 62
     5
100
AcDbLine
 10
21.6875
 20
-0.25
 30
0.0
 11
21.44143813383334
 21
-3.0625
 31
0.0
  0
LINE
  5
E3
330
1F
100
AcDbEntity
  8
THRU-CUT
 62
     5
100
AcDbLine
 10
2.554547091506762
 20
-3.0625
 30
0.0
 11
0.2679340320481423
 21
-3.0625
 31
0.0
  0
LINE
  5
E4
330
1F
100
AcDbEntity
  8
THRU-CUT
 62
     5
100
AcDbLine
 10
9.69545290849324
 20
-3.0625
 30
0.0
 11
11.80454709150676
 21
-3.0625
 31
0.0
  0
LINE
  5
E5
330
1F
100
AcDbEntity
  8
THRU-CUT
 62
     5
100
AcDbLine
 10
3.570452908493238
 20
-3.0625
 30
0.0
 11
8.67954709150676
 21
-3.0625
 31
0.0
  0
LINE
  5
E6
330
1F
100
AcDbEntity
  8
PERF-CUT
 62
   151
100
AcDbLine
 10
18.34998428309338
 20
-0.4000157169066194
 30
0.0
 11
15.68749999999999
 21
-3.0625
 31
0.0
  0
LINE
  5
E7
330
1F
100
AcDbEntity
  8
PERF-CUT
 62
   151
100
AcDbLine
 10
8.912484283093379
 20
-0.4000157169066214
 30
0.0
 11
6.24999999999999
 21
-3.0625
 31
0.0
  0
LINE
  5
E8
330
1F
100
AcDbEntity
  8
PERF-CUT
 62
   151
100
AcDbLine
 10
3.33751571690662
 20
-0.4000157169066199
 30
0.0
 11
6.000000000000001
 21
-3.0625
 31
0.0
  0
DIMENSION
  5
E9
330
1F
100
AcDbEntity
  8
LAYER1
 62
     5
100
AcDbDimension
  2
*D10
 10
22.22937957844461
 20
-3.0625
 30
0.0
 11
22.22937957844461
 21
-1.625959052404685
 31
0.0
 70
   160
  3
ODADIMSTYLE1
100
AcDbAlignedDimension
 13
21.6875
 23
-0.1875
 33
0.0
 14
21.44143813383334
 24
-3.0625
 34
0.0
 50
270.0
100
AcDbRotatedDimension
1001
ACAD
1000
DSTYLE
1002
{
1070
   271
1070
     4
1070
    41
1040
0.3997560739517212
1070
   140
1040
0.24175725877285
1002
}
  0
LINE
  5
F7
330
1F
100
AcDbEntity
  8
THRU-CUT
 62
     5
100
AcDbLine
 10
12.82045290849324
 20
-3.0625
 30
0.0
 11
18.11704709150676
 21
-3.0625
 31
0.0
  0
LINE
  5
F8
330
1F
100
AcDbEntity
  8
THRU-CUT
 62
     5
100
AcDbLine
 10
2.554547091506762
 20
13.3125
 30
0.0
 11
0.2679340320481423
 21
13.3125
 31
0.0
  0
LINE
  5
F9
330
1F
100
AcDbEntity
  8
CREASE
 62
     3
100
AcDbLine
 10
18.88142300085609
 20
10.4375
 30
0.0
 11
21.6875
 21
10.4375
 31
0.0
  0
ARC
  5
FA
330
1F
100
AcDbEntity
  8
THRU-CUT
 62
     5
100
AcDbCircle
 10
18.625
 20
10.375
 30
0.0
 40
0.2500000000000025
100
AcDbArc
 50
184.9999999999998
 51
354.9999999999978
  0
LINE
  5
FB
330
1F
100
AcDbEntity
  8
THRU-CUT
 62
     5
100
AcDbLine
 10
18.37595132547706
 20
10.35321106431309
 30
0.0
 11
18.11704709150676
 21
13.3125
 31
0.0
  0
LINE
  5
FC
330
1F
100
AcDbEntity
  8
THRU-CUT
 62
     5
100
AcDbLine
 10
18.87404867452281
 20
10.35321106431309
 30
0.0
 11
19.13295290849324
 21
13.3125
 31
0.0
  0
LINE
  5
FD
330
1F
100
AcDbEntity
  8
THRU-CUT
 62
     5
100
AcDbLine
 10
19.13295290849324
 20
13.3125
 30
0.0
 11
21.44143813383334
 21
13.3125
 31
0.0
  0
LINE
  5
FE
330
1F
100
AcDbEntity
  8
THRU-CUT
 62
     5
100
AcDbLine
 10
0.0
 20
0.0
 30
0.0
 11
0.2679340320481423
 21
-3.0625
 31
0.0
  0
LINE
  5
FF
330
1F
100
AcDbEntity
  8
CREASE
 62
     3
100
AcDbLine
 10
0.0
 20
10.1875
 30
0.0
 11
2.897140543058463
 21
10.1875
 31
0.0
  0
LINE
  5
100
330
1F
100
AcDbEntity
  8
THRU-CUT
 62
     5
100
AcDbLine
 10
0.0
 20
10.25
 30
0.0
 11
0.2679340320481423
 21
13.3125
 31
0.0
  0
LINE
  5
101
330
1F
100
AcDbEntity
  8
THRU-CUT
 62
     5
100
AcDbLine
 10
0.0
 20
0.0
 30
0.0
 11
0.0
 21
10.25
 31
0.0
  0
LINE
  5
102
330
1F
100
AcDbEntity
  8
CREASE
 62
     3
100
AcDbLine
 10
0.0
 20
0.0625
 30
0.0
 11
2.897140543058463
 21
0.0625
 31
0.0
  0
LINE
  5
103
330
1F
100
AcDbEntity
  8
CREASE
 62
     3
100
AcDbLine
 10
3.304561459137964
 20
10.3125
 30
0.0
 11
8.945438540862037
 21
10.3125
 31
0.0
  0
LINE
  5
104
330
1F
100
AcDbEntity
  8
THRU-CUT
 62
     5
100
AcDbLine
 10
2.554547091506762
 20
13.3125
 30
0.0
 11
2.813451325477063
 21
10.35321106431308
 31
0.0
  0
ARC
  5
105
330
1F
100
AcDbEntity
  8
THRU-CUT
 62
     5
100
AcDbCircle
 10
12.3125
 20
10.375
 30
0.0
 40
0.2500000000000097
100
AcDbArc
 50
185.0000000000001
 51
354.9999999999995
  0
LINE
  5
106
330
1F
100
AcDbEntity
  8
CREASE
 62
     3
100
AcDbLine
 10
9.352859456941538
 20
10.1875
 30
0.0
 11
12.14714054305846
 21
10.1875
 31
0.0
  0
LINE
  5
107
330
1F
100
AcDbEntity
  8
THRU-CUT
 62
     5
100
AcDbLine
 10
9.69545290849324
 20
13.3125
 30
0.0
 11
11.80454709150676
 21
13.3125
 31
0.0
  0
LINE
  5
108
330
1F
100
AcDbEntity
  8
THRU-CUT
 62
     5
100
AcDbLine
 10
12.06345132547705
 20
10.35321106431308
 30
0.0
 11
11.80454709150676
 21
13.3125
 31
0.0
  0
LINE
  5
109
330
1F
100
AcDbEntity
  8
THRU-CUT
 62
     5
100
AcDbLine
 10
12.56154867452291
 20
10.35321106431309
 30
0.0
 11
12.82045290849324
 21
13.3125
 31
0.0
  0
ARC
  5
10A
330
1F
100
AcDbEntity
  8
THRU-CUT
 62
     5
100
AcDbCircle
 10
-3.0625
 20
10.375
 30
0.0
 40
0.2500000000000004
210
0.0
220
0.0
230
-1.0
100
AcDbArc
 50
185.0000000000003
 51
354.9999999999997
  0
LINE
  5
10B
330
1F
100
AcDbEntity
  8
THRU-CUT
 62
     5
100
AcDbLine
 10
3.570452908493238
 20
13.3125
 30
0.0
 11
3.311548674522937
 21
10.35321106431308
 31
0.0
  0
LINE
  5
10C
330
1F
100
AcDbEntity
  8
THRU-CUT
 62
     5
100
AcDbLine
 10
8.67954709150676
 20
13.3125
 30
0.0
 11
8.938451325477113
 21
10.35321106431309
 31
0.0
  0
LINE
  5
10D
330
1F
100
AcDbEntity
  8
THRU-CUT
 62
     5
100
AcDbLine
 10
3.570452908493238
 20
13.3125
 30
0.0
 11
8.67954709150676
 21
13.3125
 31
0.0
  0
LINE
  5
10E
330
1F
100
AcDbEntity
  8
THRU-CUT
 62
     5
100
AcDbLine
 10
9.436548674522886
 20
10.35321106431309
 30
0.0
 11
9.69545290849324
 21
13.3125
 31
0.0
  0
LINE
  5
10F
330
1F
100
AcDbEntity
  8
THRU-CUT
 62
     5
100
AcDbLine
 10
12.82045290849324
 20
13.3125
 30
0.0
 11
18.11704709150676
 21
13.3125
 31
0.0
  0
LINE
  5
110
330
1F
100
AcDbEntity
  8
CREASE
 62
     3
100
AcDbLine
 10
12.57985908379692
 20
10.5625
 30
0.0
 11
18.35764091620305
 21
10.5625
 31
0.0
  0
LINE
  5
111
330
1F
100
AcDbEntity
  8
PERF-CUT
 62
   151
100
AcDbLine
 10
18.34998428309337
 20
10.65001571690663
 30
0.0
 11
15.68749999999999
 21
13.3125
 31
0.0
  0
LINE
  5
112
330
1F
100
AcDbEntity
  8
PERF-CUT
 62
   151
100
AcDbLine
 10
8.912484283093425
 20
10.65001571690657
 30
0.0
 11
6.24999999999999
 21
13.3125
 31
0.0
  0
LINE
  5
113
330
1F
100
AcDbEntity
  8
PERF-CUT
 62
   151
100
AcDbLine
 10
3.337515716906622
 20
10.65001571690662
 30
0.0
 11
6.000000000000001
 21
13.3125
 31
0.0
  0
LINE
  5
114
330
1F
100
AcDbEntity
  8
THRU-CUT
 62
     5
100
AcDbLine
 10
21.6875
 20
10.5
 30
0.0
 11
21.44143813383334
 21
13.3125
 31
0.0
  0
DIMENSION
  5
115
330
1F
100
AcDbEntity
  8
LAYER1
 62
     5
100
AcDbDimension
  2
*D11
 10
22.22937957844461
 20
10.4375
 30
0.0
 11
22.22937957844461
 21
11.87595905240468
 31
0.0
 70
   160
  3
ODADIMSTYLE1
100
AcDbAlignedDimension
 13
21.44143813383334
 23
13.3125
 33
0.0
 14
21.6875
 24
10.4375
 34
0.0
 50
270.0
100
AcDbRotatedDimension
1001
ACAD
1000
DSTYLE
1002
{
1070
   271
1070
     4
1070
    41
1040
0.3997560739517212
1070
   140
1040
0.24175725877285
1002
}
  0
ARC
  5
123
330
1F
100
AcDbEntity
  8
THRU-CUT
 62
     5
100
AcDbCircle
 10
-9.1875
 20
10.375
 30
0.0
 40
0.2499999999999494
210
0.0
220
0.0
230
-1.0
100
AcDbArc
 50
185.0000000000009
 51
354.9999999999991
  0
LINE
  5
124
330
1F
100
AcDbEntity
  8
THRU-CUT
 62
     5
100
AcDbLine
 10
9.436548674522937
 20
-0.1032110643130855
 30
0.0
 11
9.69545290849324
 21
-3.0625
 31
0.0
  0
DIMENSION
  5
125
330
1F
100
AcDbEntity
  8
LAYER1
 62
     5
100
AcDbDimension
  2
*D12
 10
3.0625
 20
-4.728777579483793
 30
0.0
 11
1.580521161778952
 21
-4.728777579483793
 31
0.0
 70
   160
  3
ODADIMSTYLE1
100
AcDbAlignedDimension
 13
0.0
 23
0.0625
 33
0.0
 14
3.0625
 24
0.125
 34
0.0
100
AcDbRotatedDimension
1001
ACAD
1000
DSTYLE
1002
{
1070
   271
1070
     4
1070
    41
1040
0.4219304025173187
1070
   140
1040
0.2551674544811249
1002
}
  0
DIMENSION
  5
133
330
1F
100
AcDbEntity
  8
LAYER1
 62
     5
100
AcDbDimension
  2
*D13
 10
9.1875
 20
-3.624932537641368
 30
0.0
 11
6.125000000000108
 21
-3.624932537641368
 31
0.0
 70
   160
  3
ODADIMSTYLE1
100
AcDbAlignedDimension
 13
3.0625
 23
0.125
 33
0.0
 14
9.1875
 24
0.1250000000000004
 34
0.0
100
AcDbRotatedDimension
1001
ACAD
1000
DSTYLE
1002
{
1070
   271
1070
     4
1070
    41
1040
0.3253960311412811
1070
   140
1040
0.1967871487140656
1002
}
  0
DIMENSION
  5
141
330
1F
100
AcDbEntity
  8
LAYER1
 62
     5
100
AcDbDimension
  2
*D14
 10
12.3125
 20
-4.41209038810825
 30
0.0
 11
10.75305590120113
 21
-4.41209038810825
 31
0.0
 70
   160
  3
ODADIMSTYLE1
100
AcDbAlignedDimension
 13
9.1875
 23
0.125
 33
0.0
 14
12.3125
 24
0.125
 34
0.0
100
AcDbRotatedDimension
1001
ACAD
1000
DSTYLE
1002
{
1070
   271
1070
     4
1070
    41
1040
0.3937007784843445
1070
   140
1040
0.2380952388048172
1002
}
  0
DIMENSION
  5
14F
330
1F
100
AcDbEntity
  8
LAYER1
 62
     5
100
AcDbDimension
  2
*D15
 10
18.625
 20
-3.625538650288295
 30
0.0
 11
15.46875
 21
-3.625538650288295
 31
0.0
 70
   160
  3
ODADIMSTYLE1
100
AcDbAlignedDimension
 13
12.3125
 23
0.125
 33
0.0
 14
18.625
 24
0.125
 34
0.0
100
AcDbRotatedDimension
1001
ACAD
1000
DSTYLE
1002
{
1070
   271
1070
     4
1070
    41
1040
0.3236586451530457
1070
   140
1040
0.195736438035965
1002
}
  0
ENDSEC
  0
SECTION
  2
OBJECTS
  0
DICTIONARY
  5
C
330
0
100
AcDbDictionary
  3
ACAD_GROUP
350
D
  3
ACAD_LAYOUT
350
1A
  3
ACAD_MLEADERSTYLE
350
17E
  3
ACAD_MLINESTYLE
350
17
  3
ACAD_PLOTSETTINGS
350
19
  3
ACAD_SCALELIST
350
73
  3
ACAD_TABLESTYLE
350
17D
  3
ACAD_VISUALSTYLE
350
2A
  3
ACDBHEADERROUNDTRIPXREC
350
15D
  3
ACDBVARIABLEDICTIONARY
350
17F
  0
DICTIONARY
  5
D
102
{ACAD_REACTORS
330
C
102
}
330
C
100
AcDbDictionary
  0
DICTIONARY
  5
1A
102
{ACAD_REACTORS
330
C
102
}
330
C
100
AcDbDictionary
  0
DICTIONARY
  5
17E
102
{ACAD_REACTORS
330
C
102
}
330
C
100
AcDbDictionary
  0
DICTIONARY
  5
17
102
{ACAD_REACTORS
330
C
102
}
330
C
100
AcDbDictionary
  3
STANDARD
350
18
  0
DICTIONARY
  5
19
102
{ACAD_REACTORS
330
C
102
}
330
C
100
AcDbDictionary
  0
DICTIONARY
  5
73
102
{ACAD_REACTORS
330
C
102
}
330
C
100
AcDbDictionary
  3
A0
350
74
  3
A1
350
75
  3
A2
350
76
  3
A3
350
77
  3
A4
350
78
  3
A5
350
79
  3
A6
350
7A
  3
A7
350
7B
  3
A8
350
7C
  3
A9
350
7D
  3
B0
350
7E
  3
B1
350
7F
  3
B2
350
80
  3
B3
350
81
  3
B4
350
82
  3
B5
350
83
  3
B6
350
84
  3
B7
350
85
  3
B8
350
86
  3
B9
350
87
  3
C0
350
88
  3
C1
350
89
  3
C2
350
8A
  3
C3
350
8B
  3
C4
350
8C
  3
C5
350
8D
  3
C6
350
8E
  3
C7
350
8F
  3
C8
350
90
  3
C9
350
91
  3
D0
350
92
  3
D1
350
93
  3
D2
350
94
  0
DICTIONARY
  5
17D
102
{ACAD_REACTORS
330
C
102
}
330
C
100
AcDbDictionary
  0
DICTIONARY
  5
2A
102
{ACAD_REACTORS
330
C
102
}
330
C
100
AcDbDictionary
  3
2DWIREFRAME
350
2F
  3
3D_HIDDEN
350
31
  3
3DWIREFRAME
350
30
  3
BASIC
350
32
  3
BRIGHTEN
350
36
  3
COLORCHANGE
350
3A
  3
CONCEPTUAL
350
34
  3
DIM
350
35
  3
FACEPATTERN
350
39
  3
FLAT
350
2B
  3
FLATWITHEDGES
350
2C
  3
GOURAUD
350
2D
  3
GOURAUDWITHEDGES
350
2E
  3
LINEPATTERN
350
38
  3
REALISTIC
350
33
  3
THICKEN
350
37
  0
DICTIONARY
  5
15D
102
{ACAD_REACTORS
330
C
102
}
330
C
100
AcDbDictionary
  3
CEPSNTYPE
350
166
  3
DIMSTYLEDATA
350
17C
  3
FINGERPRINTGUID
350
167
  3
HYPERLINKBASE
350
160
  3
INSUNITS
350
165
  3
LAYOUTDICT
350
162
  3
LWETCUNION
350
164
  3
PLOTSETDICT
350
163
  3
PSVPSCALE
350
169
  3
PUCSBASE
350
16C
  3
PUCSORGBACK
350
172
  3
PUCSORGBOTTOM
350
16E
  3
PUCSORGFRONT
350
171
  3
PUCSORGLEFT
350
16F
  3
PUCSORGRIGHT
350
170
  3
PUCSORGTOP
350
16D
  3
PUCSORTHOREF
350
16A
  3
PUCSORTHOVIEW
350
16B
  3
STYLESHEET
350
161
  3
TSTACKALIGN
350
15E
  3
TSTACKSIZE
350
15F
  3
UCSBASE
350
175
  3
UCSORGBACK
350
17B
  3
UCSORGBOTTOM
350
177
  3
UCSORGFRONT
350
17A
  3
UCSORGLEFT
350
178
  3
UCSORGRIGHT
350
179
  3
UCSORGTOP
350
176
  3
UCSORTHOREF
350
173
  3
UCSORTHOVIEW
350
174
  3
VERSIONGUID
350
168
  0
DICTIONARY
  5
17F
102
{ACAD_REACTORS
330
C
102
}
330
C
100
AcDbDictionary
  3
CANNOSCALE
350
180
  0
MLINESTYLE
  5
18
102
{ACAD_REACTORS
330
17
102
}
330
17
100
AcDbMlineStyle
  2
Standard
 70
     0
  3

 62
   256
 51
90.0
 52
90.0
 71
     2
 49
0.5
 62
   256
  6
BYLAYER
 49
-0.5
 62
   256
  6
BYLAYER
  0
ACAD_PROXY_OBJECT
  5
74
102
{ACAD_REACTORS
330
73
102
}
330
73
100
AcDbProxyObject
 90
      499
 91
      502
 93
       41
310
903313A31580
  0
ACAD_PROXY_OBJECT
  5
75
102
{ACAD_REACTORS
330
73
102
}
330
73
100
AcDbProxyObject
 90
      499
 91
      502
 93
      105
310
903313A324000000000000004000
  0
ACAD_PROXY_OBJECT
  5
76
102
{ACAD_REACTORS
330
73
102
}
330
73
100
AcDbProxyObject
 90
      499
 91
      502
 93
      105
310
903313A344000000000000104000
  0
ACAD_PROXY_OBJECT
  5
77
102
{ACAD_REACTORS
330
73
102
}
330
73
100
AcDbProxyObject
 90
      499
 91
      502
 93
      105
310
903313A354000000000000144000
  0
ACAD_PROXY_OBJECT
  5
78
102
{ACAD_REACTORS
330
73
102
}
330
73
100
AcDbProxyObject
 90
      499
 91
      502
 93
      105
310
903313A384000000000000204000
  0
ACAD_PROXY_OBJECT
  5
79
102
{ACAD_REACTORS
330
73
102
}
330
73
100
AcDbProxyObject
 90
      499
 91
      502
 93
      113
310
904313A31304000000000000244000
  0
ACAD_PROXY_OBJECT
  5
7A
102
{ACAD_REACTORS
330
73
102
}
330
73
100
AcDbProxyObject
 90
      499
 91
      502
 93
      113
310
904313A31364000000000000304000
  0
ACAD_PROXY_OBJECT
  5
7B
102
{ACAD_REACTORS
330
73
102
}
330
73
100
AcDbProxyObject
 90
      499
 91
      502
 93
      113
310
904313A32304000000000000344000
  0
ACAD_PROXY_OBJECT
  5
7C
102
{ACAD_REACTORS
330
73
102
}
330
73
100
AcDbProxyObject
 90
      499
 91
      502
 93
      113
310
904313A333040000000000003E4000
  0
ACAD_PROXY_OBJECT
  5
7D
102
{ACAD_REACTORS
330
73
102
}
330
73
100
AcDbProxyObject
 90
      499
 91
      502
 93
      113
310
904313A34304000000000000444000
  0
ACAD_PROXY_OBJECT
  5
7E
102
{ACAD_REACTORS
330
73
102
}
330
73
100
AcDbProxyObject
 90
      499
 91
      502
 93
      113
310
904313A35304000000000000494000
  0
ACAD_PROXY_OBJECT
  5
7F
102
{ACAD_REACTORS
330
73
102
}
330
73
100
AcDbProxyObject
 90
      499
 91
      502
 93
      121
310
905313A3130304000000000000594000
  0
ACAD_PROXY_OBJECT
  5
80
102
{ACAD_REACTORS
330
73
102
}
330
73
100
AcDbProxyObject
 90
      499
 91
      502
 93
      105
310
903323A310000000000000010100
  0
ACAD_PROXY_OBJECT
  5
81
102
{ACAD_REACTORS
330
73
102
}
330
73
100
AcDbProxyObject
 90
      499
 91
      502
 93
      105
310
903343A310000000000000410100
  0
ACAD_PROXY_OBJECT
  5
82
102
{ACAD_REACTORS
330
73
102
}
330
73
100
AcDbProxyObject
 90
      499
 91
      502
 93
      105
310
903383A310000000000000810100
  0
ACAD_PROXY_OBJECT
  5
83
102
{ACAD_REACTORS
330
73
102
}
330
73
100
AcDbProxyObject
 90
      499
 91
      502
 93
      113
310
90431303A310000000000000910100
  0
ACAD_PROXY_OBJECT
  5
84
102
{ACAD_REACTORS
330
73
102
}
330
73
100
AcDbProxyObject
 90
      499
 91
      502
 93
      121
310
9053130303A310000000000001650100
  0
ACAD_PROXY_OBJECT
  5
85
102
{ACAD_REACTORS
330
73
102
}
330
73
100
AcDbProxyObject
 90
      499
 91
      502
 93
      257
310
90E312F31323822203D2031272D3022000000000000200FC000000000000284000
  0
ACAD_PROXY_OBJECT
  5
86
102
{ACAD_REACTORS
330
73
102
}
330
73
100
AcDbProxyObject
 90
      499
 91
      502
 93
      249
310
90D312F363422203D2031272D3022000000000000240FC000000000000284000
  0
ACAD_PROXY_OBJECT
  5
87
102
{ACAD_REACTORS
330
73
102
}
330
73
100
AcDbProxyObject
 90
      499
 91
      502
 93
      249
310
90D312F333222203D2031272D3022000000000000280FC000000000000284000
  0
ACAD_PROXY_OBJECT
  5
88
102
{ACAD_REACTORS
330
73
102
}
330
73
100
AcDbProxyObject
 90
      499
 91
      502
 93
      249
310
90D312F313622203D2031272D30220000000000002C0FC000000000000284000
  0
ACAD_PROXY_OBJECT
  5
89
102
{ACAD_REACTORS
330
73
102
}
330
73
100
AcDbProxyObject
 90
      499
 91
      502
 93
      249
310
90D332F333222203D2031272D30220000000000002E0FC000000000000284000
  0
ACAD_PROXY_OBJECT
  5
8A
102
{ACAD_REACTORS
330
73
102
}
330
73
100
AcDbProxyObject
 90
      499
 91
      502
 93
      241
310
90C312F3822203D2031272D3022000000000000300FC000000000000284000
  0
ACAD_PROXY_OBJECT
  5
8B
102
{ACAD_REACTORS
330
73
102
}
330
73
100
AcDbProxyObject
 90
      499
 91
      502
 93
      249
310
90D332F313622203D2031272D3022000000000000320FC000000000000284000
  0
ACAD_PROXY_OBJECT
  5
8C
102
{ACAD_REACTORS
330
73
102
}
330
73
100
AcDbProxyObject
 90
      499
 91
      502
 93
      241
310
90C312F3422203D2031272D3022000000000000340FC000000000000284000
  0
ACAD_PROXY_OBJECT
  5
8D
102
{ACAD_REACTORS
330
73
102
}
330
73
100
AcDbProxyObject
 90
      499
 91
      502
 93
      241
310
90C332F3822203D2031272D3022000000000000360FC000000000000284000
  0
ACAD_PROXY_OBJECT
  5
8E
102
{ACAD_REACTORS
330
73
102
}
330
73
100
AcDbProxyObject
 90
      499
 91
      502
 93
      241
310
90C312F3222203D2031272D3022000000000000380FC000000000000284000
  0
ACAD_PROXY_OBJECT
  5
8F
102
{ACAD_REACTORS
330
73
102
}
330
73
100
AcDbProxyObject
 90
      499
 91
      502
 93
      241
310
90C332F3422203D2031272D30220000000000003A0FC000000000000284000
  0
ACAD_PROXY_OBJECT
  5
90
102
{ACAD_REACTORS
330
73
102
}
330
73
100
AcDbProxyObject
 90
      499
 91
      502
 93
      161
310
90A3122203D2031272D30224000000000000284000
  0
ACAD_PROXY_OBJECT
  5
91
102
{ACAD_REACTORS
330
73
102
}
330
73
100
AcDbProxyObject
 90
      499
 91
      502
 93
      257
310
90E312D312F3222203D2031272D30220000000000003E0FC000000000000284000
  0
ACAD_PROXY_OBJECT
  5
92
102
{ACAD_REACTORS
330
73
102
}
330
73
100
AcDbProxyObject
 90
      499
 91
      502
 93
      225
310
90A3322203D2031272D302200000000000002100000000000000284000
  0
ACAD_PROXY_OBJECT
  5
93
102
{ACAD_REACTORS
330
73
102
}
330
73
100
AcDbProxyObject
 90
      499
 91
      502
 93
      225
310
90A3622203D2031272D302200000000000006100000000000000284000
  0
ACAD_PROXY_OBJECT
  5
94
102
{ACAD_REACTORS
330
73
102
}
330
73
100
AcDbProxyObject
 90
      499
 91
      502
 93
      249
310
90D31272D3022203D2031272D30220000000000000A100000000000000284000
  0
VISUALSTYLE
  5
2F
102
{ACAD_REACTORS
330
2A
102
}
330
2A
100
AcDbVisualStyle
  2
2dWireframe
 70
     4
 71
     0
 72
     2
 73
     0
 90
        0
 40
-0.6
 41
-30.0
 62
     5
 63
     7
 74
     1
 91
        4
 64
     7
 65
   257
 75
     1
175
     1
 42
1.0
 92
        0
 66
   257
 43
1.0
 76
     1
 77
     6
 78
     2
 67
     7
 79
     5
170
     0
171
     0
290
     0
174
     0
 93
        1
 44
0.0
173
     0
291
     0
 45
0.0
1001
ACAD
1000
AcDbSavedByObjectVersion
1070
     0
  0
VISUALSTYLE
  5
31
102
{ACAD_REACTORS
330
2A
102
}
330
2A
100
AcDbVisualStyle
  2
3D Hidden
 70
     6
 71
     1
 72
     2
 73
     2
 90
        0
 40
-0.6
 41
-30.0
 62
     5
 63
     7
 74
     2
 91
        2
 64
     7
 65
   257
 75
     2
175
     1
 42
40.0
 92
        0
 66
   257
 43
1.0
 76
     1
 77
     6
 78
     2
 67
     7
 79
     3
170
     0
171
     0
290
     0
174
     0
 93
        1
 44
0.0
173
     0
291
     0
 45
0.0
1001
ACAD
1000
AcDbSavedByObjectVersion
1070
     0
  0
VISUALSTYLE
  5
30
102
{ACAD_REACTORS
330
2A
102
}
330
2A
100
AcDbVisualStyle
  2
3dWireframe
 70
     5
 71
     0
 72
     2
 73
     0
 90
        0
 40
-0.6
 41
-30.0
 62
     5
 63
     7
 74
     1
 91
        4
 64
     7
 65
   257
 75
     1
175
     1
 42
1.0
 92
        0
 66
   257
 43
1.0
 76
     1
 77
     6
 78
     2
 67
     7
 79
     5
170
     0
171
     0
290
     0
174
     0
 93
        1
 44
0.0
173
     0
291
     0
 45
0.0
1001
ACAD
1000
AcDbSavedByObjectVersion
1070
     0
  0
VISUALSTYLE
  5
32
102
{ACAD_REACTORS
330
2A
102
}
330
2A
100
AcDbVisualStyle
  2
Basic
 70
     7
 71
     1
 72
     0
 73
     1
 90
        0
 40
-0.6
 41
-30.0
 62
     5
 63
     7
 74
     0
 91
        4
 64
     7
 65
   257
 75
     1
175
     1
 42
1.0
 92
        8
 66
     7
 43
1.0
 76
     1
 77
     6
 78
     2
 67
     7
 79
     5
170
     0
171
     0
290
     0
174
     0
 93
        1
 44
0.0
173
     0
291
     1
 45
0.0
1001
ACAD
1000
AcDbSavedByObjectVersion
1070
     0
  0
VISUALSTYLE
  5
36
102
{ACAD_REACTORS
330
2A
102
}
330
2A
100
AcDbVisualStyle
  2
Brighten
 70
    12
 71
     2
 72
     2
 73
     0
 90
        0
 40
-0.6
 41
-30.0
 62
     5
 63
     7
 74
     1
 91
        4
 64
     7
 65
   257
 75
     1
175
     1
 42
1.0
 92
        8
 66
     7
 43
1.0
 76
     1
 77
     6
 78
     2
 67
     7
 79
     5
170
     0
171
     0
290
     0
174
     0
 93
        1
 44
50.0
173
     0
291
     1
 45
0.0
1001
ACAD
1000
AcDbSavedByObjectVersion
1070
     0
  0
VISUALSTYLE
  5
3A
102
{ACAD_REACTORS
330
2A
102
}
330
2A
100
AcDbVisualStyle
  2
ColorChange
 70
    16
 71
     2
 72
     2
 73
     3
 90
        0
 40
-0.6
 41
-30.0
 62
     5
 63
     8
 74
     1
 91
        4
 64
     7
 65
   257
 75
     1
175
     1
 42
1.0
 92
        8
 66
     8
 43
1.0
 76
     1
 77
     6
 78
     2
 67
     7
 79
     5
170
     0
171
     0
290
     0
174
     0
 93
        1
 44
0.0
173
     0
291
     1
 45
0.0
1001
ACAD
1000
AcDbSavedByObjectVersion
1070
     0
  0
VISUALSTYLE
  5
34
102
{ACAD_REACTORS
330
2A
102
}
330
2A
100
AcDbVisualStyle
  2
Conceptual
 70
     9
 71
     3
 72
     2
 73
     0
 90
        0
 40
-0.6
 41
-30.0
 62
     5
 63
     7
 74
     2
 91
        2
 64
     7
 65
   257
 75
     1
175
     1
 42
40.0
 92
        8
 66
     7
 43
1.0
 76
     1
 77
     6
 78
     2
 67
     7
 79
     3
170
     0
171
     0
290
     0
174
     0
 93
        1
 44
0.0
173
     0
291
     0
 45
0.0
1001
ACAD
1000
AcDbSavedByObjectVersion
1070
     0
  0
VISUALSTYLE
  5
35
102
{ACAD_REACTORS
330
2A
102
}
330
2A
100
AcDbVisualStyle
  2
Dim
 70
    11
 71
     2
 72
     2
 73
     0
 90
        0
 40
-0.6
 41
-30.0
 62
     5
 63
     7
 74
     1
 91
        4
 64
     7
 65
   257
 75
     1
175
     1
 42
1.0
 92
        8
 66
     7
 43
1.0
 76
     1
 77
     6
 78
     2
 67
     7
 79
     5
170
     0
171
     0
290
     0
174
     0
 93
        1
 44
-50.0
173
     0
291
     1
 45
0.0
1001
ACAD
1000
AcDbSavedByObjectVersion
1070
     0
  0
VISUALSTYLE
  5
39
102
{ACAD_REACTORS
330
2A
102
}
330
2A
100
AcDbVisualStyle
  2
Facepattern
 70
    15
 71
     2
 72
     2
 73
     0
 90
        0
 40
-0.6
 41
-30.0
 62
     5
 63
     7
 74
     1
 91
        4
 64
     7
 65
   257
 75
     1
175
     1
 42
1.0
 92
        8
 66
     7
 43
1.0
 76
     1
 77
     6
 78
     2
 67
     7
 79
     5
170
     0
171
     0
290
     0
174
     0
 93
        1
 44
0.0
173
     0
291
     1
 45
0.0
1001
ACAD
1000
AcDbSavedByObjectVersion
1070
     0
  0
VISUALSTYLE
  5
2B
102
{ACAD_REACTORS
330
2A
102
}
330
2A
100
AcDbVisualStyle
  2
Flat
 70
     0
 71
     2
 72
     1
 73
     1
 90
        2
 40
-0.6
 41
30.0
 62
     5
 63
     7
 74
     0
 91
        4
 64
     7
 65
   257
 75
     1
175
     1
 42
1.0
 92
        8
 66
     7
 43
1.0
 76
     1
 77
     6
 78
     2
 67
     7
 79
     5
170
     0
171
     0
290
     0
174
     0
 93
       13
 44
0.0
173
     0
291
     1
 45
0.0
1001
ACAD
1000
AcDbSavedByObjectVersion
1070
     0
  0
VISUALSTYLE
  5
2C
102
{ACAD_REACTORS
330
2A
102
}
330
2A
100
AcDbVisualStyle
  2
FlatWithEdges
 70
     1
 71
     2
 72
     1
 73
     1
 90
        2
 40
-0.6
 41
30.0
 62
     5
 63
     7
 74
     1
 91
        4
 64
     7
 65
   257
 75
     1
175
     1
 42
1.0
 92
        0
 66
   257
 43
1.0
 76
     1
 77
     6
 78
     2
 67
     7
 79
     5
170
     0
171
     0
290
     0
174
     0
 93
       13
 44
0.0
173
     0
291
     1
 45
0.0
1001
ACAD
1000
AcDbSavedByObjectVersion
1070
     0
  0
VISUALSTYLE
  5
2D
102
{ACAD_REACTORS
330
2A
102
}
330
2A
100
AcDbVisualStyle
  2
Gouraud
 70
     2
 71
     2
 72
     2
 73
     1
 90
        2
 40
-0.6
 41
30.0
 62
     5
 63
     7
 74
     0
 91
        4
 64
     7
 65
   257
 75
     1
175
     1
 42
1.0
 92
        0
 66
     7
 43
1.0
 76
     1
 77
     6
 78
     2
 67
     7
 79
     5
170
     0
171
     0
290
     0
174
     0
 93
       13
 44
0.0
173
     0
291
     1
 45
0.0
1001
ACAD
1000
AcDbSavedByObjectVersion
1070
     0
  0
VISUALSTYLE
  5
2E
102
{ACAD_REACTORS
330
2A
102
}
330
2A
100
AcDbVisualStyle
  2
GouraudWithEdges
 70
     3
 71
     2
 72
     2
 73
     1
 90
        2
 40
-0.6
 41
30.0
 62
     5
 63
     7
 74
     1
 91
        4
 64
     7
 65
   257
 75
     1
175
     1
 42
1.0
 92
        0
 66
   257
 43
1.0
 76
     1
 77
     6
 78
     2
 67
     7
 79
     5
170
     0
171
     0
290
     0
174
     0
 93
       13
 44
0.0
173
     0
291
     1
 45
0.0
1001
ACAD
1000
AcDbSavedByObjectVersion
1070
     0
  0
VISUALSTYLE
  5
38
102
{ACAD_REACTORS
330
2A
102
}
330
2A
100
AcDbVisualStyle
  2
Linepattern
 70
    14
 71
     2
 72
     2
 73
     0
 90
        0
 40
-0.6
 41
-30.0
 62
     5
 63
     7
 74
     1
 91
        4
 64
     7
 65
   257
 75
     7
175
     7
 42
1.0
 92
        8
 66
     7
 43
1.0
 76
     1
 77
     6
 78
     2
 67
     7
 79
     5
170
     0
171
     0
290
     0
174
     0
 93
        1
 44
0.0
173
     0
291
     1
 45
0.0
1001
ACAD
1000
AcDbSavedByObjectVersion
1070
     0
  0
VISUALSTYLE
  5
33
102
{ACAD_REACTORS
330
2A
102
}
330
2A
100
AcDbVisualStyle
  2
Realistic
 70
     8
 71
     2
 72
     2
 73
     0
 90
        0
 40
-0.6
 41
-30.0
 62
     5
 63
     7
 74
     1
 91
        0
 64
     7
 65
   257
 75
     1
175
     1
 42
1.0
 92
        8
 66
     8
 43
1.0
 76
     1
 77
     6
 78
     2
 67
     7
 79
     5
170
     0
171
     0
290
     0
174
     0
 93
       13
 44
0.0
173
     0
291
     0
 45
0.0
1001
ACAD
1000
AcDbSavedByObjectVersion
1070
     0
  0
VISUALSTYLE
  5
37
102
{ACAD_REACTORS
330
2A
102
}
330
2A
100
AcDbVisualStyle
  2
Thicken
 70
    13
 71
     2
 72
     2
 73
     0
 90
        0
 40
-0.6
 41
-30.0
 62
     5
 63
     7
 74
     1
 91
        4
 64
     7
 65
   257
 75
     1
175
     1
 42
1.0
 92
       12
 66
     7
 43
1.0
 76
     1
 77
     6
 78
     2
 67
     7
 79
     5
170
     0
171
     0
290
     0
174
     0
 93
        1
 44
0.0
173
     0
291
     1
 45
0.0
1001
ACAD
1000
AcDbSavedByObjectVersion
1070
     0
  0
XRECORD
  5
166
102
{ACAD_REACTORS
330
15D
102
}
330
15D
100
AcDbXrecord
 90
        0
  0
XRECORD
  5
17C
102
{ACAD_REACTORS
330
15D
102
}
330
15D
100
AcDbXrecord
1000
DSTYLE
1002
{
1070
   340
340
11
1002
}
  0
XRECORD
  5
167
102
{ACAD_REACTORS
330
15D
102
}
330
15D
100
AcDbXrecord
  1
{EB5D34AE-3ACA-4598-8987-BF286F913DF0}
  0
XRECORD
  5
160
102
{ACAD_REACTORS
330
15D
102
}
330
15D
100
AcDbXrecord
  1

  0
XRECORD
  5
165
102
{ACAD_REACTORS
330
15D
102
}
330
15D
100
AcDbXrecord
 90
        1
  0
XRECORD
  5
162
102
{ACAD_REACTORS
330
15D
102
}
330
15D
100
AcDbXrecord
340
1A
  0
XRECORD
  5
164
102
{ACAD_REACTORS
330
15D
102
}
330
15D
100
AcDbXrecord
 90
    10781
  0
XRECORD
  5
163
102
{ACAD_REACTORS
330
15D
102
}
330
15D
100
AcDbXrecord
340
19
  0
XRECORD
  5
169
102
{ACAD_REACTORS
330
15D
102
}
330
15D
100
AcDbXrecord
 40
0.0
  0
XRECORD
  5
16C
102
{ACAD_REACTORS
330
15D
102
}
330
15D
100
AcDbXrecord
340
0
  0
XRECORD
  5
172
102
{ACAD_REACTORS
330
15D
102
}
330
15D
100
AcDbXrecord
 10
0.0
 20
0.0
 30
0.0
  0
XRECORD
  5
16E
102
{ACAD_REACTORS
330
15D
102
}
330
15D
100
AcDbXrecord
 10
0.0
 20
0.0
 30
0.0
  0
XRECORD
  5
171
102
{ACAD_REACTORS
330
15D
102
}
330
15D
100
AcDbXrecord
 10
0.0
 20
0.0
 30
0.0
  0
XRECORD
  5
16F
102
{ACAD_REACTORS
330
15D
102
}
330
15D
100
AcDbXrecord
 10
0.0
 20
0.0
 30
0.0
  0
XRECORD
  5
170
102
{ACAD_REACTORS
330
15D
102
}
330
15D
100
AcDbXrecord
 10
0.0
 20
0.0
 30
0.0
  0
XRECORD
  5
16D
102
{ACAD_REACTORS
330
15D
102
}
330
15D
100
AcDbXrecord
 10
0.0
 20
0.0
 30
0.0
  0
XRECORD
  5
16A
102
{ACAD_REACTORS
330
15D
102
}
330
15D
100
AcDbXrecord
340
0
  0
XRECORD
  5
16B
102
{ACAD_REACTORS
330
15D
102
}
330
15D
100
AcDbXrecord
 70
     0
  0
XRECORD
  5
161
102
{ACAD_REACTORS
330
15D
102
}
330
15D
100
AcDbXrecord
  1

  0
XRECORD
  5
15E
102
{ACAD_REACTORS
330
15D
102
}
330
15D
100
AcDbXrecord
 90
        1
  0
XRECORD
  5
15F
102
{ACAD_REACTORS
330
15D
102
}
330
15D
100
AcDbXrecord
 90
       70
  0
XRECORD
  5
175
102
{ACAD_REACTORS
330
15D
102
}
330
15D
100
AcDbXrecord
340
0
  0
XRECORD
  5
17B
102
{ACAD_REACTORS
330
15D
102
}
330
15D
100
AcDbXrecord
 10
0.0
 20
0.0
 30
0.0
  0
XRECORD
  5
177
102
{ACAD_REACTORS
330
15D
102
}
330
15D
100
AcDbXrecord
 10
0.0
 20
0.0
 30
0.0
  0
XRECORD
  5
17A
102
{ACAD_REACTORS
330
15D
102
}
330
15D
100
AcDbXrecord
 10
0.0
 20
0.0
 30
0.0
  0
XRECORD
  5
178
102
{ACAD_REACTORS
330
15D
102
}
330
15D
100
AcDbXrecord
 10
0.0
 20
0.0
 30
0.0
  0
XRECORD
  5
179
102
{ACAD_REACTORS
330
15D
102
}
330
15D
100
AcDbXrecord
 10
0.0
 20
0.0
 30
0.0
  0
XRECORD
  5
176
102
{ACAD_REACTORS
330
15D
102
}
330
15D
100
AcDbXrecord
 10
0.0
 20
0.0
 30
0.0
  0
XRECORD
  5
173
102
{ACAD_REACTORS
330
15D
102
}
330
15D
100
AcDbXrecord
340
0
  0
XRECORD
  5
174
102
{ACAD_REACTORS
330
15D
102
}
330
15D
100
AcDbXrecord
 70
     0
  0
XRECORD
  5
168
102
{ACAD_REACTORS
330
15D
102
}
330
15D
100
AcDbXrecord
  1
{FAEB1C32-E019-11D5-929B-00C0DF256EC4}
  0
DICTIONARYVAR
  5
180
102
{ACAD_REACTORS
330
17F
102
}
330
17F
100
DictionaryVariables
280
     0
  1
1:1
  0
ENDSEC
  0
EOF
